Скачать порно через торрент My Girlfriend's Hot Mom Vol. 13 Моя подруга Горячие Мама Том. 13 UnionPeer.org бесплатно онлайн HD качество

Скачать новое порно 2015, 2014 новинки через торрент UnionPeer.org

Порно торрент бесплатно ЮнионПир.орг

Если у вас наблюдаются проблемы со скриншотами, переходом по ссылками, скачиванием торрентов - проблемы в блокировщике рекламы AdBlock. #хорошегоДня!


Статистика раздачи
Размер:  2.23 GB   |    Зарегистрирован:  2 года 4 месяца   |    .torrent скачан:  487 раз   |   
Раздают:  1  
   
Загрузка...
 
Автор Сообщение

Galfimbul

avatar Galfimbul


My Girlfriend''s Hot Mom Vol. 13 / Моя подруга Горячие Мама Том. 13

Год производства: 2015 г.
Страна: USA
Жанр: Affairs & Love Triangles, Gonzo, Mature, MILF,
Продолжительность: 02:00:00+
Язык: Английский

Студия: Reality Kings

В ролях: Alina Long, Dava Foxx, Simone Sonay, Kayla West, Madison Lee, Missy Lee
Video
ID : 1
Format : AVC
Format/Info : Advanced Video Codec
Format profile : Main@L3.0
Format settings, CABAC : No
Format settings, ReFrames : 6 frames
Codec ID : avc1
Codec ID/Info : Advanced Video Coding
Duration : 43mn 14s
Source duration : 43mn 13s
Bit rate mode : Variable
Bit rate : 1 438 Kbps
Maximum bit rate : 1 500 Kbps
Width : 768 pixels
Height : 432 pixels
Display aspect ratio : 16:9
Frame rate mode : Constant
Frame rate : 29.970 fps
Standard : Component
Color space : YUV
Chroma subsampling : 4:2:0
Bit depth : 8 bits
Scan type : Progressive
Bits/(Pixel*Frame) : 0.145
Stream size : 445 MiB (93%)
Source stream size : 465 MiB (98%)
Encoded date : UTC 2014-10-25 00:54:33
Tagged date : UTC 2014-10-24 00:55:31

Audio
ID : 2
Format : AAC
Format/Info : Advanced Audio Codec
Format profile : LC
Codec ID : 40
Duration : 43mn 13s
Bit rate mode : Variable
Bit rate : 32.0 Kbps
Maximum bit rate : 35.4 Kbps
Channel(s) : 1 channel
Channel positions : Front: C
Sampling rate : 32.0 KHz
Compression mode : Lossy
Stream size : 9.90 MiB (2%)
Разбит на эпизоды: Да
Качество видео: WEB-DL
Формат видео: MP4
Видео: MPEG4 Video (H264) 768x432 29.97fps
Аудио: AAC 32000Hz mono 512kbps

Трекер:  [ 13-Июл-2015 09:30 ]

  

Скачать .torrent

Размер .torrent файла 90 KB


Размер: 2.23 GB
Хэш (hash) релиза: b290d778f66fdbce0246a527557c1162588e60c3

Еще никто не оставлял запись к записи скачать торрент My Girlfriend's Hot Mom Vol. 13 Моя подруга Горячие Мама Том. 13 . Будь первым!

!Обратная связь