Скачать порно через торрент My Sister's Hot Friend Vol. 43 Мой ангел нового друга Том. 43 UnionPeer.org бесплатно онлайн HD качество

Скачать новое порно 2015, 2014 новинки через торрент UnionPeer.org

Порно торрент бесплатно ЮнионПир.орг

Если у вас наблюдаются проблемы со скриншотами, переходом по ссылками, скачиванием торрентов - проблемы в блокировщике рекламы AdBlock. #хорошегоДня!


Статистика раздачи
Размер:  1.1 GB   |    Зарегистрирован:  2 года 1 месяц   |    .torrent скачан:  174 раза   |   
Раздают:  1  
   
Загрузка...
 
Автор Сообщение

Galfimbul

avatar Galfimbul


My Sister''s Hot Friend Vol. 43 / Мой ангел нового друга Том. 43

Год производства: 2015 г.
Страна: USA
Жанр: All Sex, Gonzo, Big Tits, Teens,
Продолжительность: 02:00:00+
Язык: Английский

Студия: Naughty America

В ролях: Skin Diamond, Natalia Starr, Chastity Lynn, Mia Gold, Nadia Nickels

Описание: She''s irresistibly fuckable, and I know she wants me as bad as I want her. She''s my sister''s hot friend!
Video
ID : 1
Format : AVC
Format/Info : Advanced Video Codec
Format profile : Main@L3.0
Format settings, CABAC : Yes
Format settings, ReFrames : 3 frames
Codec ID : avc1
Codec ID/Info : Advanced Video Coding
Duration : 30mn 5s
Bit rate : 900 Kbps
Width : 640 pixels
Height : 360 pixels
Display aspect ratio : 16:9
Frame rate mode : Constant
Frame rate : 30.000 fps
Color space : YUV
Chroma subsampling : 4:2:0
Bit depth : 8 bits
Scan type : Progressive
Bits/(Pixel*Frame) : 0.130
Stream size : 194 MiB (91%)
Writing library : x264 core 120
Encoding settings : cabac=1 / ref=3 / deblock=1:0:0 / analyse=0x1:0x111 / me=hex / subme=6 / psy=0 / mixed_ref=0 / me_range=16 / chroma_me=1 / trellis=1 / 8x8dct=0 / cqm=0 / deadzone=21,11 / fast_pskip=1 / chroma_qp_offset=0 / threads=1 / sliced_threads=0 / nr=0 / decimate=1 / interlaced=0 / bluray_compat=0 / constrained_intra=0 / bframes=3 / b_pyramid=0 / b_adapt=1 / b_bias=0 / direct=1 / weightb=0 / open_gop=0 / weightp=2 / keyint=150 / keyint_min=25 / scenecut=40 / intra_refresh=0 / rc=2pass / mbtree=0 / bitrate=900 / ratetol=1.0 / qcomp=0.60 / qpmin=10 / qpmax=51 / qpstep=4 / cplxblur=20.0 / qblur=0.5 / ip_ratio=1.40 / pb_ratio=1.30 / aq=1:1.00
Language : English
Encoded date : UTC 2013-01-14 19:46:57
Tagged date : UTC 2013-01-14 19:46:57

Audio
ID : 2
Format : AAC
Format/Info : Advanced Audio Codec
Format profile : LC
Codec ID : 40
Duration : 30mn 5s
Bit rate mode : Variable
Bit rate : 79.3 Kbps
Maximum bit rate : 96.0 Kbps
Channel(s) : 2 channels
Channel positions : Front: L R
Sampling rate : 44.1 KHz
Compression mode : Lossy
Delay relative to video : -1ms
Stream size : 17.1 MiB (8%)
Language : English
Разбит на эпизоды: Да
Качество видео: WEB-DL
Формат видео: MP4
Видео: MPEG4 Video (H264) 640x360 30fps
Аудио: AAC 44100Hz stereo 1411kbps

Трекер:  [ 13-Июл-2015 09:30 ]

  

Скачать .torrent

Размер .torrent файла 44 KB


Размер: 1.1 GB
Хэш (hash) релиза: 690df978679ff5eca6b3915975d1adba01a3432c

Еще никто не оставлял запись к записи скачать торрент My Sister's Hot Friend Vol. 43 Мой ангел нового друга Том. 43 . Будь первым!

!Обратная связь