Скачать порно через торрент [BDWC] Interracial Ambush Межрасовый Засада UnionPeer.org бесплатно онлайн HD качество

Скачать новое порно 2015, 2014 новинки через торрент UnionPeer.org

Порно торрент бесплатно ЮнионПир.орг

Если у вас наблюдаются проблемы со скриншотами, переходом по ссылками, скачиванием торрентов - проблемы в блокировщике рекламы AdBlock. #хорошегоДня!


Статистика раздачи
Размер:  1.28 GB   |    Зарегистрирован:  2 года 1 месяц   |    .torrent скачан:  748 раз   |   
Раздают:  1  
   
Загрузка...
 
Автор Сообщение

Galfimbul

avatar Galfimbul


[BDWC] Interracial Ambush / Межрасовый Засада

Год производства: 2015 г.
Страна: USA
Жанр: Riley Reid, Abella Danger, Jodi Taylor, Jenna Ivory, Prince Yahshua, Rico Strong, Nat Turnher, Moe Johnson, Jon Jon
Продолжительность: 02:10:00
Язык: Английский

Режиссер: Lexington Steele
Студия: AireRose Entertainment

В ролях: Riley Reid, Abella Danger, Jodi Taylor, Jenna Ivory, Prince Yahshua, Rico Strong, Nat Turnher, Moe Johnson, Jon Jon

Описание: 2 big black cocks and 1 white girl in every scene!
Video
ID : 1
Format : AVC
Format/Info : Advanced Video Codec
Format profile : Main@L3.1
Format settings, CABAC : Yes
Format settings, ReFrames : 5 frames
Codec ID : avc1
Codec ID/Info : Advanced Video Coding
Duration : 30mn 37s
Bit rate : 1 421 Kbps
Width : 852 pixels
Height : 480 pixels
Display aspect ratio : 16:9
Frame rate mode : Constant
Frame rate : 29.970 fps
Color space : YUV
Chroma subsampling : 4:2:0
Bit depth : 8 bits
Scan type : Progressive
Bits/(Pixel*Frame) : 0.116
Stream size : 311 MiB (97%)
Tagged date : UTC 2015-07-11 18:09:05

Audio
ID : 2
Format : AAC
Format/Info : Advanced Audio Codec
Format profile : LC
Codec ID : 40
Duration : 30mn 37s
Bit rate mode : Constant
Bit rate : 44.0 Kbps
Channel(s) : 2 channels
Channel positions : Front: L R
Sampling rate : 48.0 KHz
Compression mode : Lossy
Stream size : 9.64 MiB (3%)
Разбит на эпизоды: Да
Качество видео: WEB-DL
Формат видео: MP4
Видео: MPEG4 Video (H264) 852x480 29.97fps 1393kbps
Аудио: AAC 48000Hz stereo 44kbps

Трекер:  [ 13-Июл-2015 09:00 ]

  

Скачать .torrent

Размер .torrent файла 52 KB


Размер: 1.28 GB
Хэш (hash) релиза: 39d24af49a6f594321554c6860cafb9a61f0d531

Торренты, похожие на [BDWC] Interracial Ambush Межрасовый Засада скачать торрент

Форум Название Автор Размер S L Добавлен
Зарубежные порнофильмы ·· [BDWC] Interracial Ambush / Межрасовая засада (Lexington Steele, Airerose Entertainment) [2015 г., All Sex, Big Cocks, Threesomes, WEBRip, 1080p] Galfimbul 53213619574.96 GB 0 0 1460322728

00:12

11-Апр-16

Еще никто не оставлял запись к записи скачать торрент [BDWC] Interracial Ambush Межрасовый Засада . Будь первым!

!Обратная связь