Скачать порно через торрент First Time Auditions Vol. 34 Впервые прослушивание Том. 34 UnionPeer.org бесплатно онлайн HD качество

Скачать новое порно 2015, 2014 новинки через торрент UnionPeer.org

Порно торрент бесплатно ЮнионПир.орг

Если у вас наблюдаются проблемы со скриншотами, переходом по ссылками, скачиванием торрентов - проблемы в блокировщике рекламы AdBlock. #хорошегоДня!


Статистика раздачи
Размер:  2.36 GB   |    Зарегистрирован:  2 года 4 месяца   |    .torrent скачан:  96 раз   |   
Раздают:  1  
   
Загрузка...
 
Автор Сообщение

Galfimbul

avatar Galfimbul


First Time Auditions Vol. 34 / Впервые прослушивание Том. 34

Год производства: 2015 г.
Страна: USA
Жанр: 18+ Teens, Amateur, Auditions, Gonzo,
Продолжительность: 02:00:00+
Язык: Английский

Студия: Reality Kings

В ролях: Ashton Pierce, Chloe Skyy, Nikki Bell (II), Velma DeArmond
Video
ID : 1
Format : AVC
Format/Info : Advanced Video Codec
Format profile : Main@L3.0
Format settings, CABAC : No
Format settings, ReFrames : 6 frames
Codec ID : avc1
Codec ID/Info : Advanced Video Coding
Duration : 35mn 21s
Source duration : 35mn 21s
Bit rate mode : Variable
Bit rate : 1 438 Kbps
Maximum bit rate : 1 500 Kbps
Width : 768 pixels
Height : 432 pixels
Display aspect ratio : 16:9
Frame rate mode : Constant
Frame rate : 29.970 fps
Standard : Component
Color space : YUV
Chroma subsampling : 4:2:0
Bit depth : 8 bits
Scan type : Progressive
Bits/(Pixel*Frame) : 0.145
Stream size : 364 MiB (93%)
Source stream size : 380 MiB (98%)
Encoded date : UTC 2014-07-07 23:56:45
Tagged date : UTC 2014-07-08 00:42:04

Audio
ID : 2
Format : AAC
Format/Info : Advanced Audio Codec
Format profile : LC
Codec ID : 40
Duration : 35mn 21s
Bit rate mode : Variable
Bit rate : 32.0 Kbps
Maximum bit rate : 35.7 Kbps
Channel(s) : 1 channel
Channel positions : Front: C
Sampling rate : 32.0 KHz
Compression mode : Lossy
Stream size : 8.09 MiB (2%)
Encoded date : UTC 2014-07-07 23:56:45
Разбит на эпизоды: Да
Качество видео: WEB-DL
Формат видео: MP4
Видео: MPEG4 Video (H264) 768x432 29.97fps 1500Kbps
Аудио: AAC 32000Hz mono 512kbps

Трекер:  [ 12-Июл-2015 14:00 ]

  

Скачать .torrent

Размер .torrent файла 95 KB


Размер: 2.36 GB
Хэш (hash) релиза: 10b0805618125121ce2ade46e750a0901aa9604b

Еще никто не оставлял запись к записи скачать торрент First Time Auditions Vol. 34 Впервые прослушивание Том. 34 . Будь первым!

!Обратная связь