Скачать порно через торрент Let's Try Anal 17 Давайте попробовать анальный 17 UnionPeer.org бесплатно онлайн HD качество

Скачать новое порно 2015, 2014 новинки через торрент UnionPeer.org

Порно торрент бесплатно ЮнионПир.орг

Если у вас наблюдаются проблемы со скриншотами, переходом по ссылками, скачиванием торрентов - проблемы в блокировщике рекламы AdBlock. #хорошегоДня!


Статистика раздачи
Размер:  1.72 GB   |    Зарегистрирован:  2 года 4 месяца   |    .torrent скачан:  584 раза   |   
Раздают:  4  
   
Загрузка...
 
Автор Сообщение

Galfimbul

avatar Galfimbul


Let''s Try Anal 17 / Давайте попробовать анальный 17

Год производства: 2015 г.
Страна: USA
Жанр: Anal, First Anal, Gonzo
Продолжительность: 03:31:00
Язык: Английский

Студия: Mofos

В ролях: Isabella De Santos, Kelly Diamond, Tina Hot, Ashley Storm, Haley Hollister

Описание: Isabella has her first anal fuck!

Ashley''s ghetto booty gets a hard anal fuck!

Haley makes bubbles and butt-fucks!

Kelly has her filthy first anal!

Tina is a first time anal pro!
Video
ID : 1
Format : AVC
Format/Info : Advanced Video Codec
Format profile : High@L3.1
Format settings, CABAC : Yes
Format settings, ReFrames : 5 frames
Codec ID : avc1
Codec ID/Info : Advanced Video Coding
Duration : 35mn 19s
Bit rate : 1 000 Kbps
Width : 854 pixels
Height : 480 pixels
Display aspect ratio : 16:9
Frame rate mode : Constant
Frame rate : 29.970 fps
Color space : YUV
Chroma subsampling : 4:2:0
Bit depth : 8 bits
Scan type : Progressive
Bits/(Pixel*Frame) : 0.081
Stream size : 255 MiB (84%)
Writing library : x264 core 130 r2274 c832fe9
Encoding settings : cabac=1 / ref=5 / deblock=1:0:0 / analyse=0x3:0x113 / me=umh / subme=8 / psy=1 / psy_rd=1.00:0.00 / mixed_ref=1 / me_range=16 / chroma_me=1 / trellis=1 / 8x8dct=1 / cqm=0 / deadzone=21,11 / fast_pskip=1 / chroma_qp_offset=-2 / threads=36 / lookahead_threads=3 / sliced_threads=0 / nr=0 / decimate=1 / interlaced=0 / bluray_compat=0 / constrained_intra=0 / bframes=3 / b_pyramid=2 / b_adapt=2 / b_bias=0 / direct=3 / weightb=1 / open_gop=0 / weightp=2 / keyint=60 / keyint_min=6 / scenecut=40 / intra_refresh=0 / rc_lookahead=50 / rc=abr / mbtree=1 / bitrate=1000 / ratetol=1.0 / qcomp=0.60 / qpmin=0 / qpmax=69 / qpstep=4 / ip_ratio=1.40 / aq=1:1.00
Tagged date : UTC 2014-04-26 01:19:21

Audio
ID : 2
Format : AAC
Format/Info : Advanced Audio Codec
Format profile : LC
Codec ID : 40
Duration : 35mn 20s
Duration_LastFrame : 33ms
Bit rate mode : Constant
Bit rate : 128 Kbps
Channel(s) : 2 channels
Channel positions : Front: L R
Sampling rate : 48.0 KHz
Compression mode : Lossy
Stream size : 32.3 MiB (11%)
Tagged date : UTC 2014-04-26 01:19:21
Разбит на эпизоды: Да
Качество видео: WEB-DL
Формат видео: MP4
Видео: MPEG4 Video (H264) 854x480 29.97fps 1000Kbps
Аудио: AAC 32000Hz mono 512kbps

Трекер:  [ 12-Июл-2015 14:00 ]

  

Скачать .torrent

Размер .torrent файла 69 KB


Размер: 1.72 GB
Хэш (hash) релиза: 22540b55da627680a9b44098c6c6fa6c5ce0761b

Еще никто не оставлял запись к записи скачать торрент Let's Try Anal 17 Давайте попробовать анальный 17 . Будь первым!

!Обратная связь