Скачать порно через торрент Stacked Asses С накоплением задницы UnionPeer.org бесплатно онлайн HD качество

Скачать новое порно 2015, 2014 новинки через торрент UnionPeer.org

Порно торрент бесплатно ЮнионПир.орг

Если у вас наблюдаются проблемы со скриншотами, переходом по ссылками, скачиванием торрентов - проблемы в блокировщике рекламы AdBlock. #хорошегоДня!


Статистика раздачи
Размер:  2.79 GB   |    Зарегистрирован:  2 года 1 месяц   |    .torrent скачан:  357 раз   |   
Раздают:  1  
   
Загрузка...
 
Автор Сообщение

Galfimbul

avatar Galfimbul


Stacked Asses / С накоплением задницы

Год производства: 2015 г.
Страна: USA
Жанр: Big Butt, Big Ass, Big Tits, Gonzo
Продолжительность: 04:00:00
Язык: Английский

Студия: Reality Kings

В ролях: Nicole Aniston, Jayden Jaymes - (bio), Jada Stevens, Sarah Vandella, Jessie Rogers, Kristina Rose, Franceska Jaimes, Liza Del Sierra, Sheena Ryder
Video
ID : 1
Format : AVC
Format/Info : Advanced Video Codec
Format profile : Main@L3.0
Format settings, CABAC : No
Format settings, ReFrames : 6 frames
Codec ID : avc1
Codec ID/Info : Advanced Video Coding
Duration : 40mn 51s
Source duration : 40mn 51s
Bit rate mode : Variable
Bit rate : 1 438 Kbps
Maximum bit rate : 1 500 Kbps
Width : 768 pixels
Height : 432 pixels
Display aspect ratio : 16:9
Frame rate mode : Constant
Frame rate : 29.970 fps
Standard : Component
Color space : YUV
Chroma subsampling : 4:2:0
Bit depth : 8 bits
Scan type : Progressive
Bits/(Pixel*Frame) : 0.145
Stream size : 420 MiB (93%)
Source stream size : 439 MiB (98%)
Encoded date : UTC 2011-12-30 13:47:52
Tagged date : UTC 2011-12-29 13:49:00

Audio
ID : 2
Format : AAC
Format/Info : Advanced Audio Codec
Format profile : LC
Codec ID : 40
Duration : 40mn 51s
Bit rate mode : Variable
Bit rate : 32.0 Kbps
Maximum bit rate : 35.0 Kbps
Channel(s) : 1 channel
Channel positions : Front: C
Sampling rate : 32.0 KHz
Compression mode : Lossy
Stream size : 9.35 MiB (2%)
Разбит на эпизоды: Да
Качество видео: WEB-DL
Формат видео: MP4
Видео: MPEG4 Video (H264) 768x432 29.97fps 1500Kbps
Аудио: AAC 32000Hz mono 512kbps

Трекер:  [ 12-Июл-2015 14:00 ]

  

Скачать .torrent

Размер .torrent файла 112 KB


Размер: 2.79 GB
Хэш (hash) релиза: 763b3d57b275396ef30de17b0e7dd2f6133de2f9

Еще никто не оставлял запись к записи скачать торрент Stacked Asses С накоплением задницы . Будь первым!

!Обратная связь