Скачать порно через торрент My Dad's Hot Girlfriend Vol. 27 Мой папа нового Подруга Том. 27 UnionPeer.org бесплатно онлайн HD качество

Скачать новое порно 2015, 2014 новинки через торрент UnionPeer.org

Порно торрент бесплатно ЮнионПир.орг

Если у вас наблюдаются проблемы со скриншотами, переходом по ссылками, скачиванием торрентов - проблемы в блокировщике рекламы AdBlock. #хорошегоДня!


Статистика раздачи
Размер:  1.17 GB   |    Зарегистрирован:  2 года 1 месяц   |    .torrent скачан:  296 раз   |   
Раздают:  1  
   
Загрузка...
 
Автор Сообщение

Galfimbul

avatar Galfimbul


My Dad''s Hot Girlfriend Vol. 27 / Мой папа нового Подруга Том. 27

Год производства: 2015 г.
Страна: USA
Жанр: 18+ Teens, Affairs & Love Triangles, All Sex, Gonzo
Продолжительность: 02:00:00+
Язык: Английский

Студия: Naughty America

В ролях: Nikki Benz - (bio), Carter Cruise,Danica Dillon,Chloe Amour,Gigi Allens

Описание: Your dad''s girlfriend is young, tight and horny - way hotter than you ever expected... not only that, she''s more interested in you than him! Ca you keep a secret? Because when your dad''s away, his lusty lady is ready to play, and to make your wildest fantasy come true!
Video
ID : 1
Format : AVC
Format/Info : Advanced Video Codec
Format profile : Main@L3.0
Format settings, CABAC : Yes
Format settings, ReFrames : 4 frames
Codec ID : avc1
Codec ID/Info : Advanced Video Coding
Duration : 33mn 27s
Bit rate : 900 Kbps
Width : 640 pixels
Height : 360 pixels
Display aspect ratio : 16:9
Frame rate mode : Constant
Frame rate : 24.000 fps
Color space : YUV
Chroma subsampling : 4:2:0
Bit depth : 8 bits
Scan type : Progressive
Bits/(Pixel*Frame) : 0.163
Stream size : 215 MiB (90%)
Writing library : x264 core 136
Encoding settings : cabac=1 / ref=4 / deblock=1:0:0 / analyse=0x1:0x111 / me=hex / subme=6 / psy=1 / psy_rd=1.00:0.00 / mixed_ref=1 / me_range=16 / chroma_me=1 / trellis=1 / 8x8dct=0 / cqm=0 / deadzone=21,11 / fast_pskip=1 / chroma_qp_offset=-2 / threads=48 / lookahead_threads=2 / sliced_threads=0 / nr=0 / decimate=1 / interlaced=0 / bluray_compat=0 / constrained_intra=0 / bframes=3 / b_pyramid=0 / b_adapt=1 / b_bias=0 / direct=1 / weightb=1 / open_gop=0 / weightp=2 / keyint=150 / keyint_min=25 / scenecut=40 / intra_refresh=0 / rc_lookahead=40 / rc=2pass / mbtree=1 / bitrate=900 / ratetol=1.0 / qcomp=0.50 / qpmin=8 / qpmax=51 / qpstep=4 / cplxblur=20.0 / qblur=0.5 / ip_ratio=1.41 / aq=1:1.00
Language : English

Audio
ID : 2
Format : AAC
Format/Info : Advanced Audio Codec
Format profile : LC
Codec ID : 40
Duration : 33mn 27s
Duration_LastFrame : -11ms
Bit rate mode : Constant
Bit rate : 96.0 Kbps
Channel(s) : 2 channels
Channel positions : Front: L R
Sampling rate : 44.1 KHz
Compression mode : Lossy
Delay relative to video : -1ms
Stream size : 22.9 MiB (10%)
Language : English
Качество видео: WEB-DL
Формат видео: MP4
Видео: MPEG4 Video (H264) 640x360 24fps 900kbps
Аудио: Audio: AAC 44100Hz stereo 96kbps

Трекер:  [ 12-Июл-2015 14:00 ]

  

Скачать .torrent

Размер .torrent файла 47 KB


Размер: 1.17 GB
Хэш (hash) релиза: 7ea6339fe977eb29d3da49daba05589c6016f09f

Еще никто не оставлял запись к записи скачать торрент My Dad's Hot Girlfriend Vol. 27 Мой папа нового Подруга Том. 27 . Будь первым!

!Обратная связь