Скачать порно через торрент Dirty Masseur #9 Грязные Массажист # 9 UnionPeer.org бесплатно онлайн HD качество

Скачать новое порно 2015, 2014 новинки через торрент UnionPeer.org

Порно торрент бесплатно ЮнионПир.орг

Если у вас наблюдаются проблемы со скриншотами, переходом по ссылками, скачиванием торрентов - проблемы в блокировщике рекламы AdBlock. #хорошегоДня!


Статистика раздачи
Размер:  1.97 GB   |    Зарегистрирован:  2 года 1 месяц   |    .torrent скачан:  531 раз   |   
Раздают:  1  
   
Загрузка...
 
Автор Сообщение

Galfimbul

avatar Galfimbul


Dirty Masseur #9 / Грязные Массажист # 9

Год производства: 2015 г.
Страна: USA
Жанр: Gonzo, Massage, Oiled, Big Tits, Big Ass
Продолжительность: 04:02:00
Язык: Английский

Студия: Brazzers

В ролях: Keisha Grey. Alison Tyler, Chloe Amour, Rahyndee James, Rilynn Rae, Erica Fontes
Video
ID : 1
Format : AVC
Format/Info : Advanced Video Codec
Format profile : High@L3.1
Format settings, CABAC : Yes
Format settings, ReFrames : 5 frames
Codec ID : avc1
Codec ID/Info : Advanced Video Coding
Duration : 38mn 11s
Bit rate : 1 000 Kbps
Width : 854 pixels
Height : 480 pixels
Display aspect ratio : 16:9
Frame rate mode : Constant
Frame rate : 29.970 fps
Color space : YUV
Chroma subsampling : 4:2:0
Bit depth : 8 bits
Scan type : Progressive
Bits/(Pixel*Frame) : 0.081
Stream size : 272 MiB (84%)
Writing library : x264 core 130 r2274 c832fe9
Encoding settings : cabac=1 / ref=5 / deblock=1:0:0 / analyse=0x3:0x113 / me=umh / subme=8 / psy=1 / psy_rd=1.00:0.00 / mixed_ref=1 / me_range=16 / chroma_me=1 / trellis=1 / 8x8dct=1 / cqm=0 / deadzone=21,11 / fast_pskip=1 / chroma_qp_offset=-2 / threads=36 / lookahead_threads=3 / sliced_threads=0 / nr=0 / decimate=1 / interlaced=0 / bluray_compat=0 / constrained_intra=0 / bframes=3 / b_pyramid=2 / b_adapt=2 / b_bias=0 / direct=3 / weightb=1 / open_gop=0 / weightp=2 / keyint=60 / keyint_min=6 / scenecut=40 / intra_refresh=0 / rc_lookahead=50 / rc=abr / mbtree=1 / bitrate=1000 / ratetol=1.0 / qcomp=0.60 / qpmin=0 / qpmax=69 / qpstep=4 / ip_ratio=1.40 / aq=1:1.00
Tagged date : UTC 2014-02-22 09:27:06

Audio
ID : 2
Format : AAC
Format/Info : Advanced Audio Codec
Format profile : LC
Codec ID : 40
Duration : 38mn 11s
Duration_LastFrame : 33ms
Bit rate mode : Constant
Bit rate : 128 Kbps
Channel(s) : 2 channels
Channel positions : Front: L R
Sampling rate : 48.0 KHz
Compression mode : Lossy
Stream size : 35.0 MiB (11%)
Разбит на эпизоды: Да
Качество видео: WEB-DL
Формат видео: MP4
Видео: MPEG4 Video (H264) 854x480 23.976fps
Аудио: AAC 48000Hz stereo 1536kbps
no match no match no match no match no match no match


Трекер:  [ 10-Июл-2015 23:00 ]

  

Скачать .torrent

Размер .torrent файла 158 KB


Размер: 1.97 GB
Хэш (hash) релиза: 84b10fe0637021e70f775d5d247eab9db8411456

Торренты, похожие на Dirty Masseur #9 Грязные Массажист # 9 скачать торрент

Форум Название Автор Размер S L Добавлен
Зарубежные порнофильмы ·· Dirty Masseur 9 / Грязные Массажисты 9 (Brazzers) [2015 г., Gonzo, Massage, Oiled Anal, DVD9] Galfimbul 83195742387.75 GB 0 0 1445160216

12:23

18-Окт-15

Гонзо-фильмы ·· Dirty Masseur 9 / Грязные Массажисты 9 (Brazzers) [2015 г., Gonzo, Massage, Oiled Anal, DVDRip] Galfimbul 17521980511.63 GB 0 0 1440618641

22:50

26-Авг-15

Зарубежные порнофильмы ·· Dirty Masseur #9 / Грязные Массажисты # 9 (Brazzers) [2015 г., Gonzo, Massage, Oiled Anal, 1080p, WEB-DL] (Split Scenes) Galfimbul 2239976912820.86 GB 0 0 1437716450

08:40

24-Июл-15

Еще никто не оставлял запись к записи скачать торрент Dirty Masseur #9 Грязные Массажист # 9 . Будь первым!

!Обратная связь