Скачать порно через торрент Busty Pin-Ups Грудастая Пин-Ups UnionPeer.org бесплатно онлайн HD качество

Скачать новое порно 2015, 2014 новинки через торрент UnionPeer.org

Порно торрент бесплатно ЮнионПир.орг

Если у вас наблюдаются проблемы со скриншотами, переходом по ссылками, скачиванием торрентов - проблемы в блокировщике рекламы AdBlock. #хорошегоДня!


Статистика раздачи
Размер:  1003 MB   |    Зарегистрирован:  2 года 4 месяца   |    .torrent скачан:  1256 раз   |   
Раздают:  1  
   
Загрузка...
 
Автор Сообщение

Galfimbul

avatar Galfimbul


Busty Pin-Ups / Грудастая Пин-Ups

Год производства: 2015 г.
Страна: USA
Жанр: Straight, Oral, Big Boobs, Tit Fucking, Squirting, Lesbian, Dildo, Outdoor Sex,Gonzo
Продолжительность: 02:30:00
Язык: Английский

Студия: Elegant Ange;

В ролях: August Ames, Bonnie Rotten, Vyxen Steele, Mercedes Carrera, Olivia Austin, Bill Bailey, Karlo Karrera, Ramon Nomar

Описание: Elegant Angel presents Busty Pin-Ups! Bonnie Rotten directs & stars in this homage to sexy pin up girls from the 50''s with big beautiful tits! Featuring 5 of porn''s hottest big titted busty stars including superstar August Ames!! Order now to fulfill your Busty Pin Up desires!! Starring August Ames, Bonnie Rotten, Vyxen Steele, Mercedes Carrera, Olivia Austin. Enjoy!
Video
ID : 1
Format : AVC
Format/Info : Advanced Video Codec
Format profile : Main@L3.1
Format settings, CABAC : Yes
Format settings, ReFrames : 5 frames
Codec ID : avc1
Codec ID/Info : Advanced Video Coding
Duration : 21mn 52s
Bit rate : 1 453 Kbps
Width : 852 pixels
Height : 480 pixels
Display aspect ratio : 16:9
Frame rate mode : Variable
Frame rate : 23.976 fps
Minimum frame rate : 23.810 fps
Maximum frame rate : 24.390 fps
Color space : YUV
Chroma subsampling : 4:2:0
Bit depth : 8 bits
Scan type : Progressive
Bits/(Pixel*Frame) : 0.148
Stream size : 227 MiB (97%)
Tagged date : UTC 2015-07-06 18:10:30

Audio
ID : 2
Format : AAC
Format/Info : Advanced Audio Codec
Format profile : LC
Codec ID : 40
Duration : 21mn 52s
Bit rate mode : Constant
Bit rate : 44.0 Kbps
Channel(s) : 2 channels
Channel positions : Front: L R
Sampling rate : 48.0 KHz
Compression mode : Lossy
Delay relative to video : -138ms
Stream size : 6.88 MiB (3%)
Tagged date : UTC 2015-07-06 18:10:30
Разбит на эпизоды: Да
Качество видео: WEB-DL
Формат видео: MP4
Видео: MPEG4 Video (H264) 720x400 (16:9) 29.97fps 1494kbps
Аудио: AAC 44100Hz stereo 49kbps

Трекер:  [ 09-Июл-2015 14:00 ]

  

Скачать .torrent

Размер .torrent файла 79 KB


Размер: 1003 MB
Хэш (hash) релиза: 92a0cecc974940ff22bde4660a8c92c409cd37e2

Еще никто не оставлял запись к записи скачать торрент Busty Pin-Ups Грудастая Пин-Ups . Будь первым!

!Обратная связь