Скачать порно через торрент Horny Sluts Love To Work Out Horny Sluts Любовь выработать UnionPeer.org бесплатно онлайн HD качество

Скачать новое порно 2015, 2014 новинки через торрент UnionPeer.org

Порно торрент бесплатно ЮнионПир.орг

Если у вас наблюдаются проблемы со скриншотами, переходом по ссылками, скачиванием торрентов - проблемы в блокировщике рекламы AdBlock. #хорошегоДня!


Статистика раздачи
Размер:  1.78 GB   |    Зарегистрирован:  2 года 1 месяц   |    .torrent скачан:  160 раз   |   
Раздают:  1  
   
Загрузка...
 
Автор Сообщение

Galfimbul

avatar Galfimbul


Horny Sluts Love To Work Out / Horny Sluts Любовь выработать

Год производства: 2015 г.
Страна: USA
Жанр: Athletes, European, Gonzo, Big Tits, Big Ass
Продолжительность: 02:16:00
Язык: Английский

Студия: Private

В ролях: Anissa Kate, Angell Summers - (bio), Cindy Dollar, Jessyka Swan, Sabrina Sweet, Regina Prensley
Video
ID : 1
Format : AVC
Format/Info : Advanced Video Codec
Format profile : High@L3.1
Format settings, CABAC : Yes
Format settings, ReFrames : 2 frames
Codec ID : avc1
Codec ID/Info : Advanced Video Coding
Duration : 30mn 25s
Bit rate mode : Variable
Bit rate : 1 698 Kbps
Maximum bit rate : 2 250 Kbps
Width : 720 pixels
Height : 404 pixels
Display aspect ratio : 16:9
Frame rate mode : Constant
Frame rate : 25.000 fps
Color space : YUV
Chroma subsampling : 4:2:0
Bit depth : 8 bits
Scan type : Progressive
Bits/(Pixel*Frame) : 0.233
Stream size : 369 MiB (89%)
Title : Imported with GPAC 0.4.6-DEV (internal rev. 5)
Encoded date : UTC 2013-05-12 11:06:19
Tagged date : UTC 2013-05-12 11:06:53

Audio
ID : 2
Format : AAC
Format/Info : Advanced Audio Codec
Format profile : LC
Codec ID : 40
Duration : 30mn 25s
Bit rate mode : Variable
Bit rate : 126 Kbps
Maximum bit rate : 181 Kbps
Channel(s) : 2 channels
Channel positions : Front: L R
Sampling rate : 48.0 KHz
Compression mode : Lossy
Stream size : 27.4 MiB (7%)
Language : English
Encoded date : UTC 2013-05-12 11:06:31
Tagged date : UTC 2013-05-12 11:06:53
Разбит на эпизоды: Да
Качество видео: WEB-DL
Формат видео: MP4
Видео: MP4, 720x404, 1250kbps, 25fps
Аудио: AAC, 122kbps, lossy

Трекер:  [ 08-Июл-2015 14:00 ]

  

Скачать .torrent

Размер .torrent файла 143 KB


Размер: 1.78 GB
Хэш (hash) релиза: f42258069149848568455fc8b0553f0236ae1ba2

Еще никто не оставлял запись к записи скачать торрент Horny Sluts Love To Work Out Horny Sluts Любовь выработать . Будь первым!

!Обратная связь