Скачать порно через торрент Big Naturals Vol. 38 Большие Naturals Том. 38 UnionPeer.org бесплатно онлайн HD качество

Скачать новое порно 2015, 2014 новинки через торрент UnionPeer.org

Порно торрент бесплатно ЮнионПир.орг

Если у вас наблюдаются проблемы со скриншотами, переходом по ссылками, скачиванием торрентов - проблемы в блокировщике рекламы AdBlock. #хорошегоДня!


Статистика раздачи
Размер:  2.41 GB   |    Зарегистрирован:  2 года 3 месяца   |    .torrent скачан:  340 раз   |   
Раздают:  1  
   
Загрузка...
 
Автор Сообщение

Galfimbul

avatar Galfimbul


Big Naturals Vol. 38 / Большие Naturals Том. 38

Год производства: 2015 г.
Страна: USA
Жанр: Big Boobs, Gonzo, Naturally Busty,
Продолжительность: 02:00:00+
Язык: Английский

Студия: Reality Kings

В ролях: Shae Summers,Anissa Kate,Marina Visconti.Katrina Jade,Victoria Webb
Video
ID : 1
Format : AVC
Format/Info : Advanced Video Codec
Format profile : Main@L3.0
Format settings, CABAC : No
Format settings, ReFrames : 6 frames
Codec ID : avc1
Codec ID/Info : Advanced Video Coding
Duration : 33mn 33s
Source duration : 33mn 33s
Bit rate mode : Variable
Bit rate : 1 438 Kbps
Maximum bit rate : 1 500 Kbps
Width : 768 pixels
Height : 432 pixels
Display aspect ratio : 16:9
Frame rate mode : Constant
Frame rate : 29.970 fps
Standard : Component
Color space : YUV
Chroma subsampling : 4:2:0
Bit depth : 8 bits
Scan type : Progressive
Bits/(Pixel*Frame) : 0.145
Stream size : 345 MiB (93%)
Source stream size : 361 MiB (98%)
Encoded date : UTC 2014-06-10 00:54:16
Tagged date : UTC 2014-06-09 00:54:40

Audio
ID : 2
Format : AAC
Format/Info : Advanced Audio Codec
Format profile : LC
Codec ID : 40
Duration : 33mn 33s
Bit rate mode : Variable
Bit rate : 32.0 Kbps
Maximum bit rate : 35.3 Kbps
Channel(s) : 1 channel
Channel positions : Front: C
Sampling rate : 32.0 KHz
Compression mode : Lossy
Stream size : 7.68 MiB (2%)
Encoded date : UTC 2014-06-10 00:54:16
Tagged date : UTC 2014-06-09 00:54:40
Разбит на эпизоды: Да
Качество видео: WEB-DL
Формат видео: MP4
Видео: MPEG4 Video (H264) 768x432 29.97fps
Аудио: AAC 32000Hz mono 512kbps

Трекер:  [ 08-Июл-2015 14:00 ]

  

Скачать .torrent

Размер .torrent файла 193 KB


Размер: 2.41 GB
Хэш (hash) релиза: fb84dca8f996bd771cccf7c70f50eaaaeda516cd

Еще никто не оставлял запись к записи скачать торрент Big Naturals Vol. 38 Большие Naturals Том. 38 . Будь первым!

!Обратная связь