Скачать порно через торрент Anal Warriors 2 Анальные Воины 2 UnionPeer.org бесплатно онлайн HD качество

Скачать новое порно 2015, 2014 новинки через торрент UnionPeer.org

Порно торрент бесплатно ЮнионПир.орг

Если у вас наблюдаются проблемы со скриншотами, переходом по ссылками, скачиванием торрентов - проблемы в блокировщике рекламы AdBlock. #хорошегоДня!


Статистика раздачи
Размер:  1.26 GB   |    Зарегистрирован:  2 года 1 месяц   |    .torrent скачан:  819 раз   |   
Раздают:  1  
   
Загрузка...
 
Автор Сообщение

Galfimbul

avatar Galfimbul


Anal Warriors 2 / Анальные Воины 2

Год производства: 2015 г.
Страна: USA
Жанр: Gonzo,Anal, Oral, Double Oral, Big Boobs, Big Cocks, Threesome, Interracial
Продолжительность: 01:52:00
Язык: Английский

Студия: Arch Angel

В ролях: Phoenix Marie, Jada Stevens, Jennifer White, Tiffany Doll, Sarah Vandella

Описание: Warriors are experienced soldiers specializing in combat-but, Anal Warriors are also extremely gifted hot women who can take well endowed men in every orifice of their bodies. Find out how these ladies earned this coveted title.
Video
ID : 1
Format : AVC
Format/Info : Advanced Video Codec
Format profile : High@L3.1
Format settings, CABAC : Yes
Format settings, ReFrames : 5 frames
Codec ID : avc1
Codec ID/Info : Advanced Video Coding
Duration : 31mn 44s
Bit rate : 1 669 Kbps
Width : 720 pixels
Height : 400 pixels
Display aspect ratio : 16:9
Frame rate mode : Constant
Frame rate : 29.970 fps
Color space : YUV
Chroma subsampling : 4:2:0
Bit depth : 8 bits
Scan type : Progressive
Bits/(Pixel*Frame) : 0.193
Stream size : 379 MiB (93%)
Encoded date : UTC 2036-02-06 06:28:16
Tagged date : UTC 2015-07-06 00:43:20
Color primaries : BT.601-6 525, BT.1358 525, BT.1700 NTSC, SMPTE 170M
Transfer characteristics : BT.709-5, BT.1361
Matrix coefficients : BT.601-6 525, BT.1358 525, BT.1700 NTSC, SMPTE 170M

Audio
ID : 2
Format : AAC
Format/Info : Advanced Audio Codec
Format profile : LC
Codec ID : 40
Duration : 31mn 44s
Bit rate mode : Variable
Bit rate : 128 Kbps
Channel(s) : 1 channel
Channel positions : Front: C
Sampling rate : 44.1 KHz
Compression mode : Lossy
Stream size : 29.2 MiB (7%)
Title : Mono
Разбит на эпизоды: Да
Качество видео: WEB-DL
Формат видео: MP4
Видео: MPEG4 Video (H264) 720x400 29.97fps 1204kbps
Аудио: AAC 44100Hz mono 128kbps

Трекер:  [ 08-Июл-2015 14:00 ]

  

Скачать .torrent

Размер .torrent файла 101 KB


Размер: 1.26 GB
Хэш (hash) релиза: 32f81835de6211aa380f78ea3e6fd7828f5b3ee1

Еще никто не оставлял запись к записи скачать торрент Anal Warriors 2 Анальные Воины 2 . Будь первым!

!Обратная связь