Скачать порно через торрент My Sister Has A Tight Pussy 3 Моя сестра A жесткие киска 3 UnionPeer.org бесплатно онлайн HD качество

Скачать новое порно 2015, 2014 новинки через торрент UnionPeer.org

Порно торрент бесплатно ЮнионПир.орг

Если у вас наблюдаются проблемы со скриншотами, переходом по ссылками, скачиванием торрентов - проблемы в блокировщике рекламы AdBlock. #хорошегоДня!


Статистика раздачи
Размер:  1.27 GB   |    Зарегистрирован:  2 года 1 месяц   |    .torrent скачан:  196 раз   |   
Раздают:  1  
   
Загрузка...
 
Автор Сообщение

Galfimbul

avatar Galfimbul


My Sister Has A Tight Pussy 3 / Моя сестра A жесткие киска 3

Год производства: 2015 г.
Страна: USA
Жанр: 18+ Teens, Family Roleplay, Gonzo,
Продолжительность: 02:02:00
Язык: Английский

Студия: Digital Sin

В ролях: Goldie, Jessica Leon, Ashley Adams and Taylor May, with Chad White, Toni Ribas, Ramon Nomar and Xander Corvus

Описание: These stepsiblings aren''t just horny for each other, they''re going all the way! Watch Goldie, Jessica Leon, Ashley Adams and Taylor May take their stepbrothers for a ride on their tight little pussies. They might be family but the sex is too fucking hot!
Video
ID : 1
Format : AVC
Format/Info : Advanced Video Codec
Format profile : High@L3.0
Format settings, CABAC : Yes
Format settings, ReFrames : 4 frames
Codec ID : avc1
Codec ID/Info : Advanced Video Coding
Duration : 30mn 48s
Bit rate : 1 399 Kbps
Width : 568 pixels
Height : 320 pixels
Display aspect ratio : 16:9
Frame rate mode : Constant
Frame rate : 29.000 fps
Color space : YUV
Chroma subsampling : 4:2:0
Bit depth : 8 bits
Scan type : Progressive
Bits/(Pixel*Frame) : 0.265
Stream size : 308 MiB (94%)
Language : English
Tagged date : UTC 2015-07-06 20:41:05

Audio
ID : 2
Format : AAC
Format/Info : Advanced Audio Codec
Format profile : LC
Codec ID : 40
Duration : 30mn 48s
Bit rate mode : Constant
Bit rate : 92.1 Kbps
Channel(s) : 2 channels
Channel positions : Front: L R
Sampling rate : 48.0 KHz
Compression mode : Lossy
Stream size : 20.3 MiB (6%)
Language : English
Разбит на эпизоды: Да
Качество видео: WEB-DL
Формат видео: MP4
Видео: AVC, 568x320, 29.000 fps, 1399 Kbps
Аудио: AAC LC, 48.0 KHz, 2 channels, 128 Kbps

Трекер:  [ 08-Июл-2015 14:00 ]

  

Скачать .torrent

Размер .torrent файла 102 KB


Размер: 1.27 GB
Хэш (hash) релиза: 4977350fc381a464e1a8e1118fecd070745a940b

Еще никто не оставлял запись к записи скачать торрент My Sister Has A Tight Pussy 3 Моя сестра A жесткие киска 3 . Будь первым!

!Обратная связь