Скачать порно через торрент Perverted Ass Massage 4 Извращенной жопа Массаж 4 UnionPeer.org бесплатно онлайн HD качество

Скачать новое порно 2015, 2014 новинки через торрент UnionPeer.org

Порно торрент бесплатно ЮнионПир.орг

Если у вас наблюдаются проблемы со скриншотами, переходом по ссылками, скачиванием торрентов - проблемы в блокировщике рекламы AdBlock. #хорошегоДня!


Статистика раздачи
Размер:  1.19 GB   |    Зарегистрирован:  2 года 4 месяца   |    .torrent скачан:  168 раз   |   
Раздают:  1  
   
Загрузка...
 
Автор Сообщение

Galfimbul

avatar Galfimbul


Perverted Ass Massage 4 / Извращенной жопа Массаж 4

Год производства: 2015 г.
Страна: USA
Жанр: Straight, Oral, Big Boobs, Big Butts, Massage, Oiled,Gonzo
Продолжительность: 02:25:00
Язык: Английский

Студия: Lethal Hardcore

В ролях: Charley Chase, Chelsey Lanette, Dylan Phoenix, Gia Paige

Описание: Big booty girls get fondled by a creepy masseur! Charlie begged her step-bro Romeo for a deep tissue massage and a hard dick deep in her crevice! Mike helped Dylan Phoenix stretch out her sore leg muscles before he stretched out her tight pussy. When Mike oiled up Gia''s butt by the pool and rubbed it down, she ended up wanting his dick inside as well. Chelsey came to Sonny''s place with a sore back but left with a sore pussy!
Video
ID : 1
Format : AVC
Format/Info : Advanced Video Codec
Format profile : Main@L3.1
Format settings, CABAC : Yes
Format settings, ReFrames : 2 frames
Codec ID : avc1
Codec ID/Info : Advanced Video Coding
Duration : 34mn 0s
Bit rate mode : Variable
Bit rate : 1 098 Kbps
Maximum bit rate : 1 210 Kbps
Width : 854 pixels
Height : 480 pixels
Display aspect ratio : 16:9
Frame rate mode : Constant
Frame rate : 29.970 fps
Color space : YUV
Chroma subsampling : 4:2:0
Bit depth : 8 bits
Scan type : Progressive
Bits/(Pixel*Frame) : 0.089
Stream size : 267 MiB (89%)
Encoded date : UTC 2015-06-24 16:29:08
Tagged date : UTC 2015-06-24 16:29:08

Audio
ID : 2
Format : AAC
Format/Info : Advanced Audio Codec
Format profile : LC
Codec ID : 40
Duration : 34mn 0s
Bit rate mode : Variable
Bit rate : 128 Kbps
Maximum bit rate : 138 Kbps
Channel(s) : 2 channels
Channel positions : Front: L R
Sampling rate : 44.1 KHz
Compression mode : Lossy
Stream size : 30.6 MiB (10%)
Разбит на эпизоды: Да
Качество видео: WEB-DL
Формат видео: MP4
Видео: MPEG4 Video (H264) 854x480 29.97fps 1097kbps
Аудио: AAC 44100Hz stereo 125kbps

Трекер:  [ 08-Июл-2015 14:00 ]

  

Скачать .torrent

Размер .torrent файла 96 KB


Размер: 1.19 GB
Хэш (hash) релиза: 697a8a244a22621b1000a4dcdf47194c054a1647

Торренты, похожие на Perverted Ass Massage 4 Извращенной жопа Массаж 4 скачать торрент

Форум Название Автор Размер S L Добавлен
Гонзо-фильмы ·· Perverted Ass Massage 4 / Извращенной Массаж Жопы 4 (Talon / Lethal Hardcore) [2015 г., All Sex, Big Butt, Gonzo, Massage, Oiled, 540p, WEB-DL] (Split Scenes) Galfimbul 28032294572.61 GB 0 0 1498371640

09:20

25-Июн-17

Еще никто не оставлял запись к записи скачать торрент Perverted Ass Massage 4 Извращенной жопа Массаж 4 . Будь первым!

!Обратная связь