Скачать порно через торрент Interracial Surrender Межрасовый Сдача UnionPeer.org бесплатно онлайн HD качество

Скачать новое порно 2015, 2014 новинки через торрент UnionPeer.org

Порно торрент бесплатно ЮнионПир.орг

Если у вас наблюдаются проблемы со скриншотами, переходом по ссылками, скачиванием торрентов - проблемы в блокировщике рекламы AdBlock. #хорошегоДня!


Статистика раздачи
Размер:  2.85 GB   |    Зарегистрирован:  2 года 1 месяц   |    .torrent скачан:  646 раз   |   
Раздают:  1  
   
Загрузка...
 
Автор Сообщение

Galfimbul

avatar Galfimbul


Interracial Surrender / Межрасовый Сдача

Год производства: 2015 г.
Страна: USA
Жанр: Straight, Oral, Big Tits, Big Dicks, Interracial, Teens, Gonzo
Продолжительность: 02:35:00
Язык: Английский

Студия: Team Skeet

В ролях: Elektra Rose, Jay Taylor, Keisha Grey, Miley May, Yhivi
Video
ID : 1
Format : AVC
Format/Info : Advanced Video Codec
Format profile : Main@L3.1
Format settings, CABAC : No
Format settings, ReFrames : 2 frames
Codec ID : avc1
Codec ID/Info : Advanced Video Coding
Duration : 34mn 50s
Source duration : 34mn 50s
Bit rate : 2 496 Kbps
Width : 960 pixels
Height : 540 pixels
Display aspect ratio : 16:9
Frame rate mode : Constant
Frame rate : 23.976 fps
Standard : NTSC
Color space : YUV
Chroma subsampling : 4:2:0
Bit depth : 8 bits
Scan type : Progressive
Bits/(Pixel*Frame) : 0.201
Stream size : 622 MiB (95%)
Source stream size : 622 MiB (95%)
Language : English
Encoded date : UTC 2015-03-04 15:00:55
Tagged date : UTC 2015-03-04 15:00:55
mdhd_Duration : 2090797

Audio
ID : 2
Format : AAC
Format/Info : Advanced Audio Codec
Format profile : LC
Codec ID : 40
Duration : 34mn 50s
Bit rate mode : Variable
Bit rate : 128 Kbps
Maximum bit rate : 134 Kbps
Channel(s) : 2 channels
Channel positions : Front: L R
Sampling rate : 44.1 KHz
Compression mode : Lossy
Stream size : 31.9 MiB (5%)
Language : English
Разбит на эпизоды: Да
Качество видео: WEB-DL
Формат видео: MP4
Видео: MPEG4 Video (H264) 960x540 23.98fps 2513kbps
Аудио: AAC 44100Hz stereo 128kbps

Трекер:  [ 08-Июл-2015 14:00 ]

  

Скачать .torrent

Размер .torrent файла 229 KB


Размер: 2.85 GB
Хэш (hash) релиза: 6a7e7ea90423da54e7bd30583a8e2007d94c2d75

Еще никто не оставлял запись к записи скачать торрент Interracial Surrender Межрасовый Сдача . Будь первым!

!Обратная связь