Скачать порно через торрент Interracial Casting Couch 2 Межрасовый кушетки 2 UnionPeer.org бесплатно онлайн HD качество

Скачать новое порно 2015, 2014 новинки через торрент UnionPeer.org

Порно торрент бесплатно ЮнионПир.орг

Если у вас наблюдаются проблемы со скриншотами, переходом по ссылками, скачиванием торрентов - проблемы в блокировщике рекламы AdBlock. #хорошегоДня!


Статистика раздачи
Размер:  4.24 GB   |    Зарегистрирован:  2 года 3 месяца   |    .torrent скачан:  194 раза   |   
Раздают:  1  
   
Загрузка...
 
Автор Сообщение

Galfimbul

avatar Galfimbul


Interracial Casting Couch 2/ Межрасовый кушетки 2

Год производства: 2015 г.
Страна: USA
Жанр: Amateur, Auditions, Big Cocks, Gonzo, Interracial
Продолжительность: 03:52:00
Язык: Английский

Студия: Net Video Girls

В ролях: Natalie (VI) , Adrianna (III), Charlotte (II), Cora (II), Kim (III)

Описание: They Said They Wanted To Meet Some Big Stars, So He Showed Them His Cock!

"Hey girls, to make it big in this business, first you''ve got to start making my cock big!"

They see our ad for music video auditions and come in hoping to find fame and fortune. What they get instead is a big, black dick pounding their tight white pussies, and mouth-filling cum loads! So, if you want the gig, it''s like the man said "Ho, you got to get your knees dirty!"
Video
ID : 1
Format : AVC
Format/Info : Advanced Video Codec
Format profile : Main@L4.0
Format settings, CABAC : Yes
Format settings, ReFrames : 4 frames
Codec ID : avc1
Codec ID/Info : Advanced Video Coding
Duration : 59mn 14s
Bit rate mode : Variable
Bit rate : 2 500 Kbps
Width : 656 pixels
Height : 368 pixels
Display aspect ratio : 16:9
Frame rate mode : Variable
Frame rate : 29.970 fps
Minimum frame rate : 29.960 fps
Maximum frame rate : 29.970 fps
Color space : YUV
Chroma subsampling : 4:2:0
Bit depth : 8 bits
Scan type : Progressive
Bits/(Pixel*Frame) : 0.346
Stream size : 1.01 GiB (95%)
Writing library : x264 core 130 r2273 b3065e6
Encoding settings : cabac=1 / ref=1 / deblock=1:0:0 / analyse=0x1:0x111 / me=hex / subme=2 / psy=1 / psy_rd=1.00:0.00 / mixed_ref=0 / me_range=16 / chroma_me=1 / trellis=0 / 8x8dct=0 / cqm=0 / deadzone=21,11 / fast_pskip=1 / chroma_qp_offset=0 / threads=36 / lookahead_threads=2 / sliced_threads=0 / nr=0 / decimate=1 / interlaced=0 / bluray_compat=0 / constrained_intra=0 / bframes=3 / b_pyramid=2 / b_adapt=1 / b_bias=0 / direct=1 / weightb=1 / open_gop=0 / weightp=1 / keyint=300 / keyint_min=30 / scenecut=40 / intra_refresh=0 / rc_lookahead=10 / rc=abr / mbtree=1 / bitrate=2500 / ratetol=1.0 / qcomp=0.60 / qpmin=0 / qpmax=69 / qpstep=4 / vbv_maxrate=20000 / vbv_bufsize=25000 / nal_hrd=none / ip_ratio=1.40 / aq=1:1.00
Encoded date : UTC 2014-08-06 01:50:44
Tagged date : UTC 2014-08-06 02:18:36
Color primaries : BT.709-5, BT.1361, IEC 61966-2-4, SMPTE RP177
Transfer characteristics : BT.709-5, BT.1361
Matrix coefficients : BT.709-5, BT.1361, IEC 61966-2-4 709, SMPTE RP177

Audio
ID : 2
Format : AAC
Format/Info : Advanced Audio Codec
Format profile : LC
Codec ID : 40
Duration : 59mn 14s
Bit rate mode : Variable
Bit rate : 129 Kbps
Maximum bit rate : 142 Kbps
Channel(s) : 2 channels
Channel positions : Front: L R
Sampling rate : 48.0 KHz
Compression mode : Lossy
Delay relative to video : -67ms
Stream size : 54.7 MiB (5%)
Language : English
Качество видео: WEB-DL
Формат видео: MP4
Видео: MPEG4 Video (H264) 656x368
Аудио: AAC 48000Hz stereo 1536kbps

Трекер:  [ 08-Июл-2015 14:00 ]

  

Скачать .torrent

Размер .torrent файла 170 KB


Размер: 4.24 GB
Хэш (hash) релиза: c93ecae0b49c2dedf81af9da98fcff9b6cc97895

Еще никто не оставлял запись к записи скачать торрент Interracial Casting Couch 2 Межрасовый кушетки 2 . Будь первым!

!Обратная связь