Скачать через торрент Драконий Жемчуг Супер Dragon Ball Super бесплатно Аниме Все серии на русском torrent

Если у вас наблюдаются проблемы со скриншотами, переходом по ссылками, скачиванием торрентов - проблемы в блокировщике рекламы AdBlock. #хорошегоДня!


Статистика раздачи
Размер:  478 MB   |    Зарегистрирован:  2 года 2 месяца   |    .torrent скачан:  48 раз   |   
Раздают:  1  
   
Загрузка...
 
Автор Сообщение

Galfimbul

avatar Galfimbul



Страна: Япония
Год выпуска: 2015 г.
Жанр: приключения, комедия, фэнтези, сёнэн
Продолжительность: TV (>13 эп.) 25 мин
Перевод:
<ol class="post-ul">
Русские субтитры от Bejita Ojin & Maxim Sultanov
Русские субтитры от Esito & LeoDreaM
Русские субтитры от Daiver MAB
</ol>
Режиссер: Тиока Кимитоси
Автор оригинала: Торияма Акира
Студия:
Описание: Продолжение истории Dragon Ball Z, начинающееся в промежутке от победы над Буу до финала сериала, спустя 10 лет после победы. За сценарий отвечает лично Акира Торияма.

Спустя 6 месяцев после победы над Маджином Буу, с помощью Драгон Боллов, Зет Воины стирают людям память о Маджине Буу и связанных с ним событиях и начинают жить мирной жизнью. Чи-Чи заставляет Гоку искать работу, а тот, в свою очередь, хочет спокойно тренироваться, чтобы быть готовым к угрозам из вне. Остальные же герои наслаждаются миром и покоем.

Доп. информация: Сюжет начинает с предыстории фильмов Dragon Ball Z: Kami to Kami (Battle of Gods) и Dragon Ball Z: Revival of "F" (а также OVA "Ossu! Kaete kita Son Goku to nakamatachi!!") и в дальнейшем покроет их временные промежутки отдельными арками, а затем продолжит их дальнейшими сюжетными линиями, в итоге приведя повествование в параллельные Вселенные.

<ol class="post-ul">
Качество: HDTVRip

Тип релиза: Без хардсаба

Формат видео: MKV

Наличие линковки: Нет

Автор рипа: SOFCJ-Raws

Видео: MPEG4 Video (H264) 1280x720 23.976fps 8bit 2457kbps;

Аудио JAP: AAC, 48000Hz stereo, ~201 Kbps, 2ch

Аудио RUS: AAC, 48000Hz, ~192 Kbps, 2ch (внешними файлами)

Субтитры: Russian: ASS, встроенные;

</ol>
<ol class="post-ul">
двухголосая (муж./жен.) от Snowly & NesTea (SHIZA Project)
</ol>
001. Награда за мир во всем мире. Кто получит 100 миллионов зени?!
Format : MPEG-4Format profile : Base MediaCodec ID : isomFile size : 446 MiBDuration : 23mn 24sOverall bit rate mode : VariableOverall bit rate : 2 662 KbpsEncoded date : UTC 2015-07-05 01:24:22Tagged date : UTC 2015-07-05 01:24:22

VideoID : 1Format : AVCFormat/Info : Advanced Video CodecFormat profile : High@L4.0Format settings, CABAC : YesFormat settings, ReFrames : 6 framesCodec ID : avc1Codec ID/Info : Advanced Video CodingDuration : 23mn 24sBit rate : 2 457 KbpsMaximum bit rate : 14.6 MbpsWidth : 1 280 pixelsHeight : 720 pixelsDisplay aspect ratio : 16:9Frame rate mode : ConstantFrame rate : 23.976 fpsColor space : YUVChroma subsampling : 4:2:0Bit depth : 8 bitsScan type : ProgressiveBits/(Pixel*Frame) : 0.111Stream size : 411 MiB (92%)Writing library : x264 core 142 r2431+42 c69a006 tMod [8-bit@all X86_64]Encoding settings : cabac=1 / ref=6 / deblock=1:1:1 / analyse=0x3:0x133 / me=umh / subme=9 / psy=1 / fade_compensate=0.00 / psy_rd=0.40:0.00 / mixed_ref=1 / me_range=32 / chroma_me=1 / trellis=2 / 8x8dct=1 / cqm=0 / deadzone=21,11 / fast_pskip=0 / chroma_qp_offset=-2 / threads=12 / lookahead_threads=1 / sliced_threads=0 / nr=0 / decimate=1 / interlaced=0 / bluray_compat=0 / constrained_intra=0 / fgo=0 / bframes=4 / b_pyramid=2 / b_adapt=2 / b_bias=0 / direct=3 / weightb=1 / open_gop=0 / weightp=2 / keyint=250 / keyint_min=23 / scenecut=40 / intra_refresh=0 / rc_lookahead=50 / rc=crf / mbtree=1 / crf=17.7000 / qcomp=0.60 / qpmin=0:0:0 / qpmax=69:69:69 / qpstep=4 / ip_ratio=1.40 / aq=1:0.60 / aq-sensitivity=10.00 / aq-factor=1.00:1.00:1.00 / aq2=0 / aq3=0Encoded date : UTC 2015-07-05 01:24:22Tagged date : UTC 2015-07-05 01:24:24Color primaries : BT.709Transfer characteristics : BT.709Matrix coefficients : BT.709Color range : Limited

AudioID : 2Format : AACFormat/Info : Advanced Audio CodecFormat profile : LCCodec ID : 40Duration : 23mn 24sBit rate mode : VariableBit rate : 201 KbpsMaximum bit rate : 257 KbpsChannel(s) : 2 channelsChannel positions : Front: L RSampling rate : 48.0 KHzCompression mode : LossyStream size : 33.7 MiB (8%)Encoded date : UTC 2015-07-05 01:24:24Tagged date : UTC 2015-07-05 01:24:24
[url]...5038293[/url] 720p, альтернативный перевод
[url]...5037630[/url] наличие субтитров


Трекер:  [ 08-Июл-2015 00:30 ]

  

Скачать .torrent

Размер .torrent файла 19 KB


Размер: 478 MB
Хэш (hash) релиза: 0ba4490fe39a053306bacfbd599e72d80f1e3733
Подписка на обновления:

Торренты, похожие на Драконий Жемчуг Супер Dragon Ball Super скачать торрент

Форум Название Автор Размер S L Добавлен
Аниме | HD Rips ·· Драконий жемчуг Супер / Dragon Ball Super [TV] [51-81 из XX] [Без хардсаба] [JAP, SUB] [2015, приключения, комедия, фэнтези, сёнэн, HDTVRip] [720p] Galfimbul 1406409204213.1 GB 0 0 1496965478

02:44

9-Июн-17

Аниме | HD Rips ·· Драконий Жемчуг Супер / Dragon Ball Super [TV] [1-90 из 92] [Без хардсаба] [RUS(int)] [2015-2017, приключения, комедия, фэнтези, мультсериал, HDTVRip] [720p] Galfimbul 4724089495544 GB 0 0 1494862308

18:31

15-Май-17

Аниме | HD Rips ·· Драконий жемчуг Супер / Dragon Ball Super [TV] [51-66 из XX] [Без хардсаба] [JAP, SUB] [2015, приключения, комедия, фэнтези, сёнэн, HDTVRip] [720p] Galfimbul 75570834167.04 GB 0 0 1481040107

19:01

6-Дек-16

Аниме | HD Rips ·· Драконий жемчуг Супер / Dragon Ball Super [TV] [51-66 из XX] [Без хардсаба] [JAP, SUB] [2015, приключения, комедия, фэнтези, сёнэн, HDTVRip] [720p] Galfimbul 71342996436.64 GB 0 0 1480541419

00:30

1-Дек-16

Аниме | HD Rips ·· Драконий жемчуг Супер / Dragon Ball Super [TV] [51-65 из XX] [Без хардсаба] [JAP, SUB] [2015, приключения, комедия, фэнтези, сёнэн, HDTVRip] [720p] Galfimbul 66437543186.19 GB 0 0 1479664996

21:03

20-Ноя-16

Аниме | HD Rips ·· Драконий жемчуг Супер / Dragon Ball Super [TV] [51-64 из XX] [Без хардсаба] [JAP, SUB] [2015, приключения, комедия, фэнтези, сёнэн, HDTVRip] [720p] Galfimbul 61606479825.74 GB 0 0 1478372902

22:08

5-Ноя-16

Аниме | HD Rips ·· Драконий жемчуг Супер / Dragon Ball Super [TV] [51-63 из XX] [Без хардсаба] [JAP, SUB] [2015, приключения, комедия, фэнтези, сёнэн, HDTVRip] [720p] Galfimbul 57610738545.37 GB 0 0 1477511155

22:45

26-Окт-16

Аниме | HD Rips ·· Драконий жемчуг Супер / Dragon Ball Super [TV] [51-62 из XX] [Без хардсаба] [JAP, SUB] [2015, приключения, комедия, фэнтези, сёнэн, HDTVRip] [720p] Galfimbul 53798432585.01 GB 0 0 1477261766

01:29

24-Окт-16

Аниме | HD Rips ·· Драконий жемчуг Супер / Dragon Ball Super [TV] [51-61 из XX] [Без хардсаба] [JAP, SUB] [2015 г., приключения, комедия, фэнтези, сёнэн, HDTVRip] [720p] Galfimbul 49840685784.64 GB 0 0 1476389254

23:07

13-Окт-16

Аниме | HD Rips ·· Драконий жемчуг Супер / Dragon Ball Super [TV] [51-60 из XX] [Без хардсаба] [JAP, SUB] [2015 г., приключения, комедия, фэнтези, сёнэн, HDTVRip] [720p] Galfimbul 45378471064.23 GB 0 0 1475705416

01:10

6-Окт-16

Аниме | HD Rips ·· Драконий жемчуг Супер / Dragon Ball Super [TV] [51-59 из XX] [Без хардсаба] [JAP, SUB] [2015 г., приключения, комедия, фэнтези, сёнэн, HDTVRip] [720p] Galfimbul 41803347093.89 GB 0 0 1475181221

23:33

29-Сен-16

Аниме | HD Rips ·· Драконий жемчуг Супер / Dragon Ball Super [TV] [51-58 из XX] [Без хардсаба] [JAP, SUB] [2015 г., приключения, комедия, фэнтези, сёнэн, HDTVRip] [720p] Galfimbul 37814784083.52 GB 0 0 1474064122

01:15

17-Сен-16

Аниме | HD Rips ·· Драконий жемчуг Супер / Dragon Ball Super [TV] [51-57 из XX] [Без хардсаба] [JAP, SUB] [2015 г., приключения, комедия, фэнтези, сёнэн, HDTVRip] [720p] Galfimbul 33792193003.15 GB 0 0 1473377238

02:27

9-Сен-16

Аниме | HD Rips ·· Драконий Жемчуг Супер / Dragon Ball Super [TV] [1-56 из XX] [Без хардсаба] [RUS(int)] [2015 г., приключения, комедия, фэнтези, сёнэн, HDTVRip] [720p] Galfimbul 2556077616323.81 GB 0 0 1473098110

20:55

5-Сен-16

Аниме | HD Rips ·· Драконий жемчуг Супер / Dragon Ball Super [TV] [51-56 из XX] [Без хардсаба] [JAP, SUB] [2015 г., приключения, комедия, фэнтези, сёнэн, HDTVRip] [720p] Galfimbul 34483248413.21 GB 0 0 1472681486

01:11

1-Сен-16

Аниме | HD Rips ·· Драконий Жемчуг Супер / Dragon Ball Super [TV] [1-55 из XX] [Без хардсаба] [RUS(int)] [2015 г., приключения, комедия, фэнтези, сёнэн, HDTVRip] [720p] Galfimbul 2509677112123.37 GB 0 0 1472383937

14:32

28-Авг-16

Аниме | HD Rips ·· Драконий жемчуг Супер / Dragon Ball Super [TV] [51-55 из XX] [Без хардсаба] [JAP, SUB] [2015 г., приключения, комедия, фэнтези, сёнэн, HDTVRip] [720p] Galfimbul 24209021212.25 GB 0 0 1472084644

03:24

25-Авг-16

Аниме | HD Rips ·· Драконий жемчуг Супер / Dragon Ball Super [TV] [51-54 из XX] [Без хардсаба] [JAP, SUB] [2015 г., приключения, комедия, фэнтези, сёнэн, HDTVRip] [720p] Galfimbul 20001819631.86 GB 0 0 1471019989

19:39

12-Авг-16

Аниме | HD Rips ·· Драконий Жемчуг Супер / Dragon Ball Super [TV] [1-53 из XX] [Без хардсаба] [RUS(int)] [2015 г., приключения, комедия, фэнтези, сёнэн, HDTVRip] [720p] Galfimbul 2417987023822.52 GB 0 0 1470772810

23:00

9-Авг-16

Аниме | HD Rips ·· Драконий жемчуг Супер / Dragon Ball Super [TV] [51-53 из XX] [Без хардсаба] [JAP, SUB] [2015 г., приключения, комедия, фэнтези, сёнэн, HDTVRip] [720p] Galfimbul 14164225171.32 GB 0 0 1470336288

21:44

4-Авг-16

Еще никто не оставлял запись к записи скачать торрент Драконий Жемчуг Супер Dragon Ball Super . Будь первым!

!Обратная связь