Скачать порно через торрент Colombian Fuck Fest Colombian ебать Fest UnionPeer.org бесплатно онлайн HD качество

Скачать новое порно 2015, 2014 новинки через торрент UnionPeer.org

Порно торрент бесплатно ЮнионПир.орг

Если у вас наблюдаются проблемы со скриншотами, переходом по ссылками, скачиванием торрентов - проблемы в блокировщике рекламы AdBlock. #хорошегоДня!


Статистика раздачи
Размер:  1.47 GB   |    Зарегистрирован:  2 года 1 месяц   |    .torrent скачан:  509 раз   |   
Раздают:  1  
   
Загрузка...
 
Автор Сообщение

Galfimbul

avatar Galfimbul


Colombian Fuck Fest / Colombian ебать Fest

Год производства: 2015 г.
Страна: USA
Жанр: Latin,Gonzo,Big Ass, Big Tits
Продолжительность: 03:28:00
Язык: Английский

Студия: Bang Bros

В ролях: Yenny Contreras, Cassandra Cruz - (bio), Juliana (Latin), Camila, Ariel
Video
ID : 1
Format : AVC
Format/Info : Advanced Video Codec
Format profile : Main@L3.0
Format settings, CABAC : Yes
Format settings, ReFrames : 6 frames
Codec ID : avc1
Codec ID/Info : Advanced Video Coding
Duration : 47mn 1s
Bit rate : 1 000 Kbps
Width : 720 pixels
Height : 404 pixels
Display aspect ratio : 16:9
Original display aspect ratio : 16:9
Frame rate mode : Constant
Frame rate : 29.970 fps
Color space : YUV
Chroma subsampling : 4:2:0
Bit depth : 8 bits
Scan type : Progressive
Bits/(Pixel*Frame) : 0.115
Stream size : 334 MiB (92%)
Writing library : x264 core 124 r2019+178 69a0443
Encoding settings : cabac=1 / ref=6 / deblock=1:0:0 / analyse=0x1:0x111 / me=hex / subme=6 / psy=1 / psy_rd=1.00:0.00 / mixed_ref=1 / me_range=16 / chroma_me=1 / trellis=1 / 8x8dct=0 / cqm=0 / deadzone=21,11 / fast_pskip=1 / chroma_qp_offset=-2 / threads=12 / sliced_threads=0 / nr=0 / decimate=1 / interlaced=0 / bluray_compat=0 / constrained_intra=0 / bframes=3 / b_pyramid=2 / b_adapt=1 / b_bias=0 / direct=1 / weightb=1 / open_gop=0 / weightp=2 / keyint=60 / keyint_min=25 / scenecut=40 / intra_refresh=0 / rc_lookahead=40 / rc=2pass / mbtree=1 / bitrate=1000 / ratetol=1.0 / qcomp=0.60 / qpmin=10 / qpmax=51 / qpstep=4 / cplxblur=20.0 / qblur=0.5 / vbv_maxrate=1000 / vbv_bufsize=2000 / nal_hrd=none / ip_ratio=1.41 / aq=1:1.00
Language : English

Audio
ID : 2
Format : AAC
Format/Info : Advanced Audio Codec
Format profile : LC
Codec ID : 40
Duration : 47mn 1s
Bit rate mode : Variable
Bit rate : 75.7 Kbps
Maximum bit rate : 1 000 Kbps
Channel(s) : 2 channels
Channel positions : Front: L R
Sampling rate : 44.1 KHz
Compression mode : Lossy
Delay relative to video : -800ms
Stream size : 25.5 MiB (7%)
Language : English
Разбит на эпизоды: Да
Видео: MPEG4 Video (H264) 720x404 (16:9) 29.97fps
Аудио: AAC 44100Hz stereo 1411kbps

Трекер:  [ 05-Июл-2015 15:00 ]

  

Скачать .torrent

Размер .torrent файла 118 KB


Размер: 1.47 GB
Хэш (hash) релиза: e6400b4ab2c6bc208fca4a95841ef2c61ef237af

Еще никто не оставлял запись к записи скачать торрент Colombian Fuck Fest Colombian ебать Fest . Будь первым!

!Обратная связь