Скачать порно через торрент All Of Me Все Мне UnionPeer.org бесплатно онлайн HD качество

Скачать новое порно 2015, 2014 новинки через торрент UnionPeer.org

Порно торрент бесплатно ЮнионПир.орг

Если у вас наблюдаются проблемы со скриншотами, переходом по ссылками, скачиванием торрентов - проблемы в блокировщике рекламы AdBlock. #хорошегоДня!


Статистика раздачи
Размер:  932 MB   |    Зарегистрирован:  2 года 1 месяц   |    .torrent скачан:  752 раза   |   
Раздают:  1   Качают:  1  
   
Загрузка...
 
Автор Сообщение

Galfimbul

avatar Galfimbul


All Of Me / Все Мне

Год производства: 2015 г.
Страна: USA
Жанр: 18+ Teens, All Sex, Romance, Gonzo
Продолжительность: 02:00:00
Язык: Английский

Студия: Nubile Films

В ролях: Riley Reid,Jillian Janson,Aidra Fox,Ava Taylor,Mary Jane Johnson,Bruce Venture,Tommy Gunn,Van Wylde

Описание: All Of Me - Riley Reid & Bruce Venture

For his birthday Riley gives Bruce a new bondage set that he immediately puts to use! Bruce sets the pace, taking her from slow and sensual to quiver inducing thrusts as they make each moan in their passionate lovemaking.

Cum Together - Aidra Fox, Jillian Janson & Tommy Gunn

Aidra and Jillian know how to tease Tommy, seducing him with a show of their assets. The heat turns up as each girl mounts Tommy, leading to satisfaction for all. He''s rewarded for his hard work by cumming in their mouths, for a snowy finish.

Beautiful Form - Aidra Fox & Tommy Gunn

Aidra loves yoga and Tommy is happy to support her in any way. They put their workout time to good use, tasting each other before the heavy lifting and pounding take place. The two work up a healthy sweat as they reach their explosive climax.

Dig In Deep - Ava Taylor, Maryjane Johnson & Van Wylde

Ava visits Maryjane and Van. The girls put on a show kissing, before giving Van a double blow job. Van makes sure each girl has their turn riding him before he cums into Ava''s mouth so she can share with Maryjane.
Video
ID : 1
Format : AVC
Format/Info : Advanced Video Codec
Format profile : Baseline@L3.0
Format settings, CABAC : No
Format settings, ReFrames : 2 frames
Codec ID : avc1
Codec ID/Info : Advanced Video Coding
Duration : 26mn 13s
Bit rate : 1 065 Kbps
Width : 640 pixels
Height : 360 pixels
Display aspect ratio : 16:9
Frame rate mode : Constant
Frame rate : 23.976 fps
Color space : YUV
Chroma subsampling : 4:2:0
Bit depth : 8 bits
Scan type : Progressive
Bits/(Pixel*Frame) : 0.193
Stream size : 200 MiB (91%)
Writing library : x264 core 142
Encoding settings : cabac=0 / ref=2 / deblock=1:0:0 / analyse=0x1:0x111 / me=umh / subme=8 / psy=1 / psy_rd=1.00:0.00 / mixed_ref=1 / me_range=16 / chroma_me=1 / trellis=1 / 8x8dct=0 / cqm=0 / deadzone=21,11 / fast_pskip=1 / chroma_qp_offset=-2 / threads=24 / lookahead_threads=2 / sliced_threads=0 / nr=0 / decimate=1 / interlaced=0 / bluray_compat=0 / constrained_intra=0 / bframes=0 / weightp=0 / keyint=130 / keyint_min=13 / scenecut=40 / intra_refresh=0 / rc_lookahead=50 / rc=crf / mbtree=1 / crf=20.0 / qcomp=0.60 / qpmin=0 / qpmax=69 / qpstep=4 / ip_ratio=1.40 / aq=1:1.00
Language : English

Audio
ID : 2
Format : AAC
Format/Info : Advanced Audio Codec
Format profile : LC
Codec ID : 40
Duration : 26mn 13s
Duration_LastFrame : -5ms
Bit rate mode : Constant
Bit rate : 96.0 Kbps
Channel(s) : 2 channels
Channel positions : Front: L R
Sampling rate : 44.1 KHz
Compression mode : Lossy
Stream size : 18.0 MiB (8%)
Language : English
Разбит на эпизоды: Да
Качество видео: WEB-DL
Формат видео: MP4
Видео: MPEG4 Video (H264) 640x360 23.976fps
Аудио: AAC 44100Hz stereo 1411kbps

Трекер:  [ 04-Июл-2015 13:00 ]

  

Скачать .torrent

Размер .torrent файла 73 KB


Размер: 932 MB
Хэш (hash) релиза: 545bf25935a6ef5ec1a5e29e1c6ce8b46e24cdba

Еще никто не оставлял запись к записи скачать торрент All Of Me Все Мне . Будь первым!

!Обратная связь