Скачать порно через торрент Exxxtra Small Chicks Fucking Huge Dicks #12 Exxxtra Малые Chicks Чертов Огромные хуи # 12 UnionPeer.org бесплатно онлайн HD качество

Скачать новое порно 2015, 2014 новинки через торрент UnionPeer.org

Порно торрент бесплатно ЮнионПир.орг

Если у вас наблюдаются проблемы со скриншотами, переходом по ссылками, скачиванием торрентов - проблемы в блокировщике рекламы AdBlock. #хорошегоДня!


Статистика раздачи
Размер:  1.55 GB   |    Зарегистрирован:  2 года 1 месяц   |    .torrent скачан:  666 раз   |   
Раздают:  1  
   
Загрузка...
 
Автор Сообщение

Galfimbul

avatar Galfimbul


Exxxtra Small Chicks Fucking Huge Dicks #12 / Exxxtra Малые Chicks Чертов Огромные хуи # 12

Год производства: 2015 г.
Страна: USA
Жанр: 18+ Teens, Big Cocks, Gonzo,
Продолжительность: 02:00:00
Язык: Английский

Студия: Team Skeet

В ролях: Maddy Rose,Megan Rain,Alina West,Alice Green,Diamond Monroe

Описание: She''s so cute with her face covered in cum!

5 Scenes of petite, young girls sucking and fucking monster dicks!
Video
ID : 1
Format : AVC
Format/Info : Advanced Video Codec
Format profile : Main@L3.0
Format settings, CABAC : No
Format settings, ReFrames : 2 frames
Codec ID : avc1
Codec ID/Info : Advanced Video Coding
Duration : 18mn 32s
Source duration : 18mn 32s
Bit rate : 1 501 Kbps
Width : 854 pixels
Height : 480 pixels
Display aspect ratio : 16:9
Frame rate mode : Constant
Frame rate : 23.976 fps
Standard : NTSC
Color space : YUV
Chroma subsampling : 4:2:0
Bit depth : 8 bits
Scan type : Progressive
Bits/(Pixel*Frame) : 0.153
Stream size : 199 MiB (92%)
Source stream size : 199 MiB (92%)
Language : English

Audio
ID : 2
Format : AAC
Format/Info : Advanced Audio Codec
Format profile : LC
Codec ID : 40
Duration : 18mn 32s
Bit rate mode : Variable
Bit rate : 128 Kbps
Maximum bit rate : 133 Kbps
Channel(s) : 2 channels
Channel positions : Front: L R
Sampling rate : 44.1 KHz
Compression mode : Lossy
Stream size : 17.0 MiB (8%)
Language : English
Разбит на эпизоды: Да
Качество видео: WEB-DL
Формат видео: MP4
Видео: MPEG4 Video (H264) 854x480 29.97fp
Аудио: AAC 44100Hz stereo 1411kbps
no match no match no match no match no match


Трекер:  [ 04-Июл-2015 12:30 ]

  

Скачать .torrent

Размер .torrent файла 124 KB


Размер: 1.55 GB
Хэш (hash) релиза: a4735829fd5494b5296452b09c8a5df1e9e01e02

Еще никто не оставлял запись к записи скачать торрент Exxxtra Small Chicks Fucking Huge Dicks #12 Exxxtra Малые Chicks Чертов Огромные хуи # 12 . Будь первым!

!Обратная связь