Скачать порно через торрент Secretaries Secretaries 1 UnionPeer.org бесплатно онлайн HD качество

Скачать новое порно 2015, 2014 новинки через торрент UnionPeer.org

Порно торрент бесплатно ЮнионПир.орг

Если у вас наблюдаются проблемы со скриншотами, переходом по ссылками, скачиванием торрентов - проблемы в блокировщике рекламы AdBlock. #хорошегоДня!


Статистика раздачи
Размер:  2.3 GB   |    Зарегистрирован:  2 года 4 месяца   |    .torrent скачан:  1054 раза   |   
Раздают:  1  
   
Загрузка...
 
Автор Сообщение

Galfimbul

avatar Galfimbul


Secretaries / Secretaries 1 / Секретарши

Год производства: 2008 г.
Страна: USA
Жанр: Anal, Gonzo
Продолжительность: 02:27:50
Язык: Английский

Режиссер: Alex Romero
Студия: Combat Zone

В ролях: Suzie Diamond, Lucie Theodorova (Lucky), Simone Style, Claudia Rossi, Kathy Anderson

Описание: Not only do these babes excel at phones, filing and spreadsheets, but they''re bonafide pros at getting fucked up the ass and swallowing jizzum. Fuck, last time we tried that with our secretary, we got a restraining order! We seriously gotta get the name of this temp agency.

Разбит на эпизоды: Да
Доп. информация:http://www.iafd.com/title.rme/title=secretaries+1/year=2008/secretaries-1.htm

Scene Breakdowns:
Scene 1. Kathy Anderson, George Uhl
Scene 2. Claudia Rossi, Bobi
Scene 3. Lucie Theodorova, Ian Scott
Scene 4. Simone Peach, Denis Marti
Scene 5. Suzie Diamond, Neeo

[url=...929690]Исходник DVD5[/url]

В другом качестве этот фильм есть [url=...631824]здесь[/url]

Качество видео: DVDRip-AVC
Формат видео: MP4
Видео: x264, 704х536, 4:3, 2097 Кбит/сек, 29.970 кадров/сек
Аудио: AC-3, 128 Кбит/сек, 2 канала, 48,0 КГц
Полное имя : K:\Secretaries 1 (2008).mp4
Формат : MPEG-4
Профиль формата : Base Media
Идентификатор кодека : isom
Размер файла : 2,30 Гбайт
Продолжительность : 2 ч. 27 м.
Общий поток : 2228 Кбит/сек
Дата кодирования : UTC 2015-07-03 14:49:29
Дата пометки : UTC 2015-07-03 14:49:29

Видео
Идентификатор : 1
Формат : AVC
Формат/Информация : Advanced Video Codec
Профиль формата : High@L3.1
Параметр CABAC формата : Да
Параметр ReFrames формата : 8 кадров
Идентификатор кодека : avc1
Идентификатор кодека/Информация : Advanced Video Coding
Продолжительность : 2 ч. 27 м.
Битрейт : 2097 Кбит/сек
Максимальный битрейт : 4142 Кбит/сек
Ширина : 704 пикселя
Высота : 536 пикселей
Соотношение сторон : 4:3
Режим частоты кадров : Постоянный
Частота кадров : 29,970 кадров/сек
Цветовое пространство : YUV
Субдискретизация насыщенности : 4:2:0
Битовая глубина : 8 бит
Тип развёртки : Прогрессивная
Бит/(Пиксели*Кадры) : 0.185
Размер потока : 2,16 Гбайт (94%)
Библиотека кодирования : x264 core 146 r2538 121396c
Настройки программы : cabac=1 / ref=8 / deblock=1:0:0 / analyse=0x3:0x113 / me=umh / subme=9 / psy=1 / psy_rd=1.00:0.10 / mixed_ref=1 / me_range=16 / chroma_me=1 / trellis=2 / 8x8dct=1 / cqm=0 / deadzone=21,11 / fast_pskip=1 / chroma_qp_offset=-3 / threads=6 / lookahead_threads=1 / sliced_threads=0 / nr=0 / decimate=1 / interlaced=0 / bluray_compat=0 / constrained_intra=0 / bframes=3 / b_pyramid=2 / b_adapt=2 / b_bias=0 / direct=3 / weightb=1 / open_gop=0 / weightp=2 / keyint=300 / keyint_min=29 / scenecut=40 / intra_refresh=0 / rc=crf / mbtree=0 / crf=19.5 / qcomp=0.80 / qpmin=0 / qpmax=69 / qpstep=4 / ip_ratio=1.40 / pb_ratio=1.30 / aq=1:1.00
Дата кодирования : UTC 2015-07-03 14:49:29
Дата пометки : UTC 2015-07-03 14:50:11

Аудио
Идентификатор : 2
Формат : AC-3
Формат/Информация : Audio Coding 3
Расширение режима : CM (complete main)
Параметр Endianness формата : Big
Идентификатор кодека : ac-3
Продолжительность : 2 ч. 27 м.
Вид битрейта : Постоянный
Битрейт : 128 Кбит/сек
Каналы : 2 канала
Расположение каналов : Front: L R
Частота : 48,0 КГц
Битовая глубина : 16 бит
Метод сжатия : С потерями
Размер потока : 135 Мбайт (6%)
Дата кодирования : UTC 2015-07-03 14:50:04
Дата пометки : UTC 2015-07-03 14:50:11


Трекер:  [ 04-Июл-2015 05:00 ]

  

Скачать .torrent

Размер .torrent файла 12 KB


Размер: 2.3 GB
Хэш (hash) релиза: f58a421e09549c18374ae04681e28b157f8648d9

Еще никто не оставлял запись к записи скачать торрент Secretaries Secretaries 1 . Будь первым!

!Обратная связь