Скачать порно через торрент Down My Throat Мое горло UnionPeer.org бесплатно онлайн HD качество

Скачать новое порно 2015, 2014 новинки через торрент UnionPeer.org

Порно торрент бесплатно ЮнионПир.орг

Если у вас наблюдаются проблемы со скриншотами, переходом по ссылками, скачиванием торрентов - проблемы в блокировщике рекламы AdBlock. #хорошегоДня!


Статистика раздачи
Размер:  1.57 GB   |    Зарегистрирован:  2 года 1 месяц   |    .torrent скачан:  1138 раз   |   
Раздают:  1  
   
Загрузка...
 
Автор Сообщение

Galfimbul

avatar Galfimbul


Down My Throat / Мое горло

Год производства: 2015 г.
Страна: USA
Жанр: Gonzo,Blowjobs,Big Tits,Throat
Продолжительность: 4:00:00
Язык: Английский

Студия: Elegant Angel

В ролях: Sasha Grey - (bio), Jynx Maze, Rebeca Linares - (bio), Melissa Lauren, Sophia Santi - (bio) - (interview) , Trina Michaels - (bio) , Cassie Courtland

Разбит на эпизоды: Да
Video
ID : 1
Format : AVC
Format/Info : Advanced Video Codec
Format profile : Baseline@L3.0
Format settings, CABAC : No
Format settings, ReFrames : 3 frames
Codec ID : avc1
Codec ID/Info : Advanced Video Coding
Duration : 14mn 15s
Bit rate : 1 500 Kbps
Width : 640 pixels
Height : 480 pixels
Display aspect ratio : 4:3
Frame rate mode : Constant
Frame rate : 29.970 fps
Color space : YUV
Chroma subsampling : 4:2:0
Bit depth : 8 bits
Scan type : Progressive
Bits/(Pixel*Frame) : 0.163
Stream size : 152 MiB (96%)
Writing library : x264 core 115
Encoding settings : cabac=0 / ref=3 / deblock=1:0:0 / analyse=0x1:0x111 / me=hex / subme=7 / psy=1 / psy_rd=1.00:0.00 / mixed_ref=1 / me_range=16 / chroma_me=1 / trellis=1 / 8x8dct=0 / cqm=0 / deadzone=21,11 / fast_pskip=1 / chroma_qp_offset=-2 / threads=16 / sliced_threads=0 / nr=0 / decimate=1 / interlaced=0 / bluray_compat=0 / constrained_intra=0 / bframes=0 / weightp=0 / keyint=250 / keyint_min=25 / scenecut=40 / intra_refresh=0 / rc_lookahead=40 / rc=abr / mbtree=1 / bitrate=1500 / ratetol=1.0 / qcomp=0.60 / qpmin=10 / qpmax=51 / qpstep=4 / ip_ratio=1.41 / aq=1:1.00
Tagged date : UTC 2011-10-03 02:20:21

Audio
ID : 2
Format : AAC
Format/Info : Advanced Audio Codec
Format profile : LC
Codec ID : 40
Duration : 14mn 15s
Bit rate mode : Variable
Bit rate : 64.0 Kbps
Channel(s) : 2 channels
Channel positions : Front: L R
Sampling rate : 44.1 KHz
Compression mode : Lossy
Delay relative to video : -2s 2ms
Stream size : 6.52 MiB (4%)
Качество видео: WEB-DL
Формат видео: MP4
Видео: MPEG4 Video (H264) 640x480 29.97fps
Аудио: AAC 44100Hz stereo 1411kbps

Трекер:  [ 04-Июл-2015 05:00 ]

  

Скачать .torrent

Размер .torrent файла 126 KB


Размер: 1.57 GB
Хэш (hash) релиза: 6ad97b6a11e593d6be28fd3b28ed5d65325a24be

Торренты, похожие на Down My Throat Мое горло скачать торрент

Форум Название Автор Размер S L Добавлен
Гонзо-фильмы ·· Down My Throat / Мое Горло (Elegant Angel) [2015 г., Gonzo,Blowjobs,Big Tits,Throat, DVDRip] Galfimbul 19594662031.82 GB 0 0 1440229426

10:43

22-Авг-15

Гонзо-фильмы ·· Down My Throat 2 / Мое Горло 2 (Elegant Angel) [2017 г., Blowjobs, Compilation, Deep Throat, DVDRip] Galfimbul 22438840592.09 GB 2 0 1500739265

19:01

22-Июл-17

Еще никто не оставлял запись к записи скачать торрент Down My Throat Мое горло . Будь первым!

!Обратная связь