Скачать порно через торрент Fuck My Throat Трахни меня в горле UnionPeer.org бесплатно онлайн HD качество

Скачать новое порно 2015, 2014 новинки через торрент UnionPeer.org

Порно торрент бесплатно ЮнионПир.орг

Если у вас наблюдаются проблемы со скриншотами, переходом по ссылками, скачиванием торрентов - проблемы в блокировщике рекламы AdBlock. #хорошегоДня!


Статистика раздачи
Размер:  2.87 GB   |    Зарегистрирован:  2 года 1 месяц   |    .torrent скачан:  449 раз   |   
Раздают:  1  
   
Загрузка...
 
Автор Сообщение

Galfimbul

avatar Galfimbul


Fuck My Throat / Трахни меня в горле

Год производства: 2015 г.
Страна: USA
Жанр: Gonzo,Blowjobs,Big Tits,Throat
Продолжительность: 04:00:00
Язык: Английский

Студия: Elegant Angel

В ролях: Madison Ivy, Jayden Jaymes - (bio), Jenna Haze - (bio) - (interview), Kristina Rose, Charley Chase, Aiden Starr, Alyssa Branch, Dayna Vendetta, Julia Bond - (bio), Dakoda Brookes - (bio), Gia Jordan, Courtney James
Video
ID : 1
Format : AVC
Format/Info : Advanced Video Codec
Format profile : Baseline@L3.0
Format settings, CABAC : No
Format settings, ReFrames : 3 frames
Codec ID : avc1
Codec ID/Info : Advanced Video Coding
Duration : 23mn 48s
Bit rate : 1 500 Kbps
Width : 640 pixels
Height : 480 pixels
Display aspect ratio : 4:3
Frame rate mode : Constant
Frame rate : 29.970 fps
Color space : YUV
Chroma subsampling : 4:2:0
Bit depth : 8 bits
Scan type : Progressive
Bits/(Pixel*Frame) : 0.163
Stream size : 255 MiB (97%)
Writing library : x264 core 115

Audio
ID : 2
Format : AAC
Format/Info : Advanced Audio Codec
Format profile : LC
Codec ID : 40
Duration : 23mn 48s
Bit rate mode : Variable
Bit rate : 48.0 Kbps
Channel(s) : 2 channels
Channel positions : Front: L R
Sampling rate : 48.0 KHz
Compression mode : Lossy
Delay relative to video : -2s 2ms
Stream size : 8.41 MiB (3%)
Разбит на эпизоды: Да
Качество видео: WEB-DL
Формат видео: MP4
Видео: MPEG4 Video (H264) 640x480 29.97fps
Аудио: AAC 44100Hz stereo 1411kbps

Трекер:  [ 04-Июл-2015 05:00 ]

  

Скачать .torrent

Размер .torrent файла 230 KB


Размер: 2.87 GB
Хэш (hash) релиза: 1278b9bc45c3049445f15df411634b3cd4266a11

Еще никто не оставлял запись к записи скачать торрент Fuck My Throat Трахни меня в горле . Будь первым!

!Обратная связь