Скачать порно через торрент Slutty Brunettes распутная Брюнетки UnionPeer.org бесплатно онлайн HD качество

Скачать новое порно 2015, 2014 новинки через торрент UnionPeer.org

Порно торрент бесплатно ЮнионПир.орг

Если у вас наблюдаются проблемы со скриншотами, переходом по ссылками, скачиванием торрентов - проблемы в блокировщике рекламы AdBlock. #хорошегоДня!


Статистика раздачи
Размер:  2.15 GB   |    Зарегистрирован:  2 года 3 месяца   |    .torrent скачан:  379 раз   |   
Раздают:  1  
   
Загрузка...
 
Автор Сообщение

Galfimbul

avatar Galfimbul


Slutty Brunettes / распутная Брюнетки

Год производства: 2015 г.
Страна: USA
Жанр: Gonzo,Anal,Brunette,All Sex, Big Tits, Big Ass
Продолжительность: 04:00:00
Язык: Английский

Студия: Elegant Angel

В ролях: Gracie Glam - (bio), Chanel Preston - (bio), Jynx Maze, Nyomi Banxxx, Kristina Rose, Andy San Dimas
Video
ID : 1
Format : AVC
Format/Info : Advanced Video Codec
Format profile : Baseline@L3.0
Format settings, CABAC : No
Format settings, ReFrames : 3 frames
Codec ID : avc1
Codec ID/Info : Advanced Video Coding
Duration : 30mn 27s
Bit rate : 1 500 Kbps
Width : 720 pixels
Height : 400 pixels
Display aspect ratio : 16:9
Frame rate mode : Constant
Frame rate : 29.970 fps
Color space : YUV
Chroma subsampling : 4:2:0
Bit depth : 8 bits
Scan type : Progressive
Bits/(Pixel*Frame) : 0.174
Stream size : 326 MiB (97%)
Writing library : x264 core 115

Audio
ID : 2
Format : AAC
Format/Info : Advanced Audio Codec
Format profile : LC
Codec ID : 40
Duration : 30mn 27s
Bit rate mode : Variable
Bit rate : 48.0 Kbps
Channel(s) : 2 channels
Channel positions : Front: L R
Sampling rate : 44.1 KHz
Compression mode : Lossy
Delay relative to video : -2s 2ms
Stream size : 10.7 MiB (3%)
Language : English
Разбит на эпизоды: Да
Качество видео: WEB-DL
Формат видео: MP4
Видео: MPEG4 Video (H264) 720x400 (16:9) 29.97fps
Аудио: MPEG4 Video (H264) 720x400 (16:9) 29.97fps

Трекер:  [ 04-Июл-2015 05:00 ]

  

Скачать .torrent

Размер .torrent файла 172 KB


Размер: 2.15 GB
Хэш (hash) релиза: b809f2a3c962d8c6331bf6b5fc815182e6fbda60

Торренты, похожие на Slutty Brunettes распутная Брюнетки скачать торрент

Форум Название Автор Размер S L Добавлен
Гонзо-фильмы ·· Slutty Brunettes / Распутные Брюнетки (Elegant Angel) [2015 г., Gonzo,Anal,Brunette,All Sex, Big Tits, Big Ass, DVDRip] Galfimbul 22743110112.12 GB 0 0 1440243075

14:31

22-Авг-15

Еще никто не оставлял запись к записи скачать торрент Slutty Brunettes распутная Брюнетки . Будь первым!

!Обратная связь