Скачать порно через торрент Fear Of A Black Penis #2 Страх черной пениса #2 UnionPeer.org бесплатно онлайн HD качество

Скачать новое порно 2015, 2014 новинки через торрент UnionPeer.org

Порно торрент бесплатно ЮнионПир.орг

Если у вас наблюдаются проблемы со скриншотами, переходом по ссылками, скачиванием торрентов - проблемы в блокировщике рекламы AdBlock. #хорошегоДня!


Статистика раздачи
Размер:  1.25 GB   |    Зарегистрирован:  2 года 4 месяца   |    .torrent скачан:  350 раз   |   
Раздают:  1  
   
Загрузка...
 
Автор Сообщение

Galfimbul

avatar Galfimbul


Fear Of A Black Penis #2 / Страх черной пениса #2

Год производства: 2015 г.
Страна: USA
Жанр: Gonzo,BDWC,Teens,Tiny Tits,Big Tits,Ass
Продолжительность: 02:32:00
Язык: Английский

Студия: Lethal Hardcore

В ролях: Katerina Kay, Shiloh Sherada, Brooke Summer, Naudia, Jovan Jordan, Mo Johnson, Jon Jon
Video
ID : 1
Format : AVC
Format/Info : Advanced Video Codec
Format profile : Main@L3.1
Format settings, CABAC : Yes
Format settings, ReFrames : 2 frames
Codec ID : avc1
Codec ID/Info : Advanced Video Coding
Duration : 32mn 2s
Source duration : 32mn 2s
Bit rate mode : Variable
Bit rate : 1 097 Kbps
Maximum bit rate : 1 210 Kbps
Width : 854 pixels
Height : 480 pixels
Display aspect ratio : 16:9
Frame rate mode : Constant
Frame rate : 29.970 fps
Color space : YUV
Chroma subsampling : 4:2:0
Bit depth : 8 bits
Scan type : Progressive
Bits/(Pixel*Frame) : 0.089
Stream size : 251 MiB (89%)
Source stream size : 251 MiB (89%)
Encoded date : UTC 2015-06-24 15:05:14
Tagged date : UTC 2015-06-24 15:05:14

Audio
ID : 2
Format : AAC
Format/Info : Advanced Audio Codec
Format profile : LC
Codec ID : 40
Duration : 32mn 2s
Bit rate mode : Variable
Bit rate : 128 Kbps
Maximum bit rate : 138 Kbps
Channel(s) : 2 channels
Channel positions : Front: L R
Sampling rate : 44.1 KHz
Compression mode : Lossy
Stream size : 28.8 MiB (10%)
Encoded date : UTC 2015-06-24 15:05:14
Tagged date : UTC 2015-06-24 15:05:14
Разбит на эпизоды: Да
Качество видео: WEB-DL
Формат видео: MP4
Видео: MPEG4 Video (H264) 854x480 29.97fps
Аудио: AAC 44100Hz stereo 1411kbps

Трекер:  [ 04-Июл-2015 05:00 ]

  

Скачать .torrent

Размер .torrent файла 100 KB


Размер: 1.25 GB
Хэш (hash) релиза: 39dfff2e58ab40070103136413c39525d0f8971b

Еще никто не оставлял запись к записи скачать торрент Fear Of A Black Penis #2 Страх черной пениса #2 . Будь первым!

!Обратная связь