Скачать порно через торрент Driver XXX Vol. 2 Драйвер XXX т. 2 UnionPeer.org бесплатно онлайн HD качество

Скачать новое порно 2015, 2014 новинки через торрент UnionPeer.org

Порно торрент бесплатно ЮнионПир.орг

Если у вас наблюдаются проблемы со скриншотами, переходом по ссылками, скачиванием торрентов - проблемы в блокировщике рекламы AdBlock. #хорошегоДня!


Статистика раздачи
Размер:  958 MB   |    Зарегистрирован:  2 года 1 месяц   |    .torrent скачан:  144 раза   |   
Раздают:  1  
   
Загрузка...
 
Автор Сообщение

Galfimbul

avatar Galfimbul


Driver XXX Vol. 2 / Драйвер XXX т. 2

Год производства: 2015 г.
Страна: USA
Жанр: Gonzo,Public Sex,Teens,Tiny Tits,
Продолжительность: 02:00:00
Язык: Английский

Студия: Nubiles-Porn

В ролях: Alice Green, Kimberly Gates, Mila Jade, Lizzie Bell
Video
ID : 1
Format : AVC
Format/Info : Advanced Video Codec
Format profile : Baseline@L3.0
Format settings, CABAC : No
Format settings, ReFrames : 2 frames
Codec ID : avc1
Codec ID/Info : Advanced Video Coding
Duration : 21mn 37s
Bit rate : 1 474 Kbps
Width : 640 pixels
Height : 360 pixels
Display aspect ratio : 16:9
Frame rate mode : Constant
Frame rate : 29.970 fps
Color space : YUV
Chroma subsampling : 4:2:0
Bit depth : 8 bits
Scan type : Progressive
Bits/(Pixel*Frame) : 0.213
Stream size : 228 MiB (95%)
Writing library : x264 core 142
Encoding settings : cabac=0 / ref=2 / deblock=1:0:0 / analyse=0x1:0x111 / me=umh / subme=8 / psy=1 / psy_rd=1.00:0.00 / mixed_ref=1 / me_range=16 / chroma_me=1 / trellis=1 / 8x8dct=0 / cqm=0 / deadzone=21,11 / fast_pskip=1 / chroma_qp_offset=-2 / threads=12 / lookahead_threads=2 / sliced_threads=0 / nr=0 / decimate=1 / interlaced=0 / bluray_compat=0 / constrained_intra=0 / bframes=0 / weightp=0 / keyint=130 / keyint_min=13 / scenecut=40 / intra_refresh=0 / rc_lookahead=50 / rc=crf / mbtree=1 / crf=20.0 / qcomp=0.60 / qpmin=0 / qpmax=69 / qpstep=4 / ip_ratio=1.40 / aq=1:1.00
Language : English

Audio
ID : 2
Format : AAC
Format/Info : Advanced Audio Codec
Format profile : LC
Codec ID : 40
Duration : 21mn 37s
Duration_LastFrame : -1ms
Bit rate mode : Variable
Bit rate : 68.3 Kbps
Maximum bit rate : 96.0 Kbps
Channel(s) : 2 channels
Channel positions : Front: L R
Sampling rate : 44.1 KHz
Compression mode : Lossy
Stream size : 10.6 MiB (4%)
Language : English
Разбит на эпизоды: Да
Качество видео: WEB-DL
Формат видео: MP4
Видео: MPEG4 Video (H264) 640x360 29.97fps
Аудио: AAC 44100Hz stereo 1411kbps

Трекер:  [ 04-Июл-2015 05:00 ]

  

Скачать .torrent

Размер .torrent файла 75 KB


Размер: 958 MB
Хэш (hash) релиза: ae7e2b5878bdf73e38f21a06ba53534c2a0b6c16

Еще никто не оставлял запись к записи скачать торрент Driver XXX Vol. 2 Драйвер XXX т. 2 . Будь первым!

!Обратная связь