Скачать через торрент Школа убийц Gunslinger Girl бесплатно Аниме Все серии на русском torrent

Если у вас наблюдаются проблемы со скриншотами, переходом по ссылками, скачиванием торрентов - проблемы в блокировщике рекламы AdBlock. #хорошегоДня!


Статистика раздачи
Размер:  3.61 GB   |    Зарегистрирован:  2 года 2 месяца   |    .torrent скачан:  44 раза   |   
Раздают:  1  
   
Загрузка...
 
Автор Сообщение

Galfimbul

avatar Galfimbul



Школа убийц / Gunslinger Girl / ガンスリンガー・ガール
Год выпуска: 2003-2004 г.
Страна: Япония
Жанр: Драма, Боевик, Приключения, Фантастика, Психология
Тип: TV
Продолжительность: 13 эп. по 00:23:11
Режиссер: Асака Морио
Студия: Madhouse Studios
Перевод:
<ol class="post-ul">
Русские субтитры от HnYO
</ol>
<ol class="post-ul">
Русские субтитры от Uncle_Ho
</ol>
Озвучка:
<ol class="post-ul">
Многоголосая от MC Entertainment
</ol>
Описание:
Когда-то у этих девочек было счастливое детство, любящие родители и радужное будущее… Но всё это исчезло в один миг. Жестокий мир лишил их не только семьи, но даже и собственных тел. Теперь они - секретное оружие на службе у правительства, полулюди, запрограммированные на уничтожение особо опасных преступников и террористов.

Модифицированные искусственные тела, специальные навыки по владению боевыми искусствами и любыми видами оружия делают их почти идеальными машинами для устранения неугодных. И хотя опытные наставники-мужчины всегда готовы прийти на помощь, девочки постоянно рискуют своей жизнью. А ведь в душе они - обычные дети, которые влюбляются и мечтают, дружат и ненавидят… И эти чувства и поступки порой могут помешать нажать на курок в нужную минуту.
Информационные ссылки: World Art || AniDB || MAL
Качество: BDRip | Рип: [YYDM-11FANS]
Тип релиза: Без хардсаба
Формат видео: MP4
Наличие линковки: Нет
Видео: AVC, 1280x720, ~1182 kbps, 23.976 fps [10 bit]
Аудио:
1. Russian AAC, 48 KHz, 163 kbps, 2 ch (внешние);
2. Japanese AAC, 48.0 KHz, 168 kbps, 2 ch;
Субтитры:
<ol class="post-ul">
Russian: ASS, внешние;
</ol>
General Format : MPEG-4 Format profile : Base Media Codec ID : isom File size : 225 MiB Duration : 23mn 12s Overall bit rate mode : Variable Overall bit rate : 1 353 Kbps Encoded date : UTC 2014-08-14 11:57:51 Tagged date : UTC 2014-08-14 11:57:51 Video #1 ID : 1 Format : AVC Format/Info : Advanced Video Codec Format profile : High 10@L4.1 Format settings, CABAC : Yes Format settings, ReFrames : 5 frames Codec ID : avc1 Codec ID/Info : Advanced Video Coding Duration : 23mn 11s Bit rate : 1 182 Kbps Maximum bit rate : 8 105 Kbps Width : 1 280 pixels Height : 720 pixels Display aspect ratio : 16:9 Frame rate mode : Variable Frame rate : 24.277 fps Original frame rate : 23.976 fps Minimum frame rate : 9.990 fps Maximum frame rate : 119.880 fps Color space : YUV Chroma subsampling : 4:2:0 Bit depth : 10 bits Scan type : Progressive Bits/(Pixel*Frame) : 0.053 Stream size : 196 MiB (87%) Writing library : x264 core 142 r2431 ac76440 Encoding settings : cabac=1 / ref=5 / deblock=1:-1:-1 / analyse=0x3:0x133 / me=umh / subme=9 / psy=1 / psy_rd=1.00:0.00 / mixed_ref=1 / me_range=32 / chroma_me=1 / trellis=2 / 8x8dct=1 / cqm=0 / deadzone=21,11 / fast_pskip=1 / chroma_qp_offset=0 / threads=12 / lookahead_threads=1 / sliced_threads=0 / nr=0 / decimate=1 / interlaced=0 / bluray_compat=0 / constrained_intra=0 / bframes=5 / b_pyramid=2 / b_adapt=2 / b_bias=0 / direct=1 / weightb=1 / open_gop=0 / weightp=2 / keyint=240 / keyint_min=23 / scenecut=56 / intra_refresh=0 / rc_lookahead=41 / rc=crf / mbtree=1 / crf=18.0 / qcomp=0.70 / qpmin=0 / qpmax=51 / qpstep=4 / ip_ratio=1.40 / aq=1:1.00 Encoded date : UTC 2014-08-14 11:56:02 Tagged date : UTC 2014-08-14 11:57:52 Audio #2 ID : 2 Format : AAC Format/Info : Advanced Audio Codec Format profile : LC Codec ID : 40 Duration : 23mn 12s Bit rate mode : Variable Bit rate : 168 Kbps Maximum bit rate : 226 Kbps Channel(s) : 2 channels Channel positions : Front: L R Sampling rate : 48.0 KHz Compression mode : Lossy Stream size : 27.9 MiB (12%) Encoded date : UTC 2014-08-10 12:56:34 Tagged date : UTC 2014-08-14 11:57:52

01. Старший брат и младшая сестра / Fratello - Big Brother / Little Sister
02. Орион / Orione - Astronomical Observation
03. Мальчик / Ragazzo - A Boy
04. Кукла / Bambola / Doll
05. Обещание / Promessa / Promise
06. Мороженое / Gelato / Ice Cream
07. Охрана / Protezione / Protection
08. Принц из страны спагетти / Il Principe del regno della pasta / Fairy Tale
09. Цветы Амраллиса / Lycoris radiata Herb / Cluster Amaryllis
10. Лихорадка / Amare / fever
11. Высокие чувства / Febbre alta / Tender Emotions
12. Симбиоз / Simbiosi / Symbiosis
13. Упавшая звезда / Stellacadente / Shooting Star


Трекер:  [ 26-Июн-2015 15:00 ]

  

Скачать .torrent

Размер .torrent файла 26 KB


Размер: 3.61 GB
Хэш (hash) релиза: 211d7c17d467b8190bf118b89c411b23c3120dcf
Подписка на обновления:

Торренты, похожие на Школа убийц Gunslinger Girl скачать торрент

Форум Название Автор Размер S L Добавлен
Аниме | HD Rips ·· Школа убийц / Gunslinger Girl [TV] [01-13 из 13] [Без хардсаба] [RUS(ext), JAP, SUB] [2015 г., Драма, Боевик, Приключения, Фантастика, Психология, BDRip] [720p] Galfimbul 38893568563.62 GB 0 0 1435299382

09:16

26-Июн-15

Аниме | Rips ·· Школа убийц / Gunslinger Girl [OVA][1-13 из 13][2008, драма, приключения, фантастика, DVD9][Профессиональная] _N_ 1440464008113.42 GB 0 0 1310318598

20:23

10-Июл-11

Аниме | HD Rips ·· Школа убийц [ТВ-2] / Школа убийц: Театр марионеток / Gunslinger Girl: Il Teatrino (Мано Акира) [TV] [13 из 13] [без хардсаба] [RUS(ext),JAP+SUB] [2008 г., драма, приключения, фантастика, BDRip] [720p] Bot 81827610727.62 GB 0 0 1286480956

22:49

7-Окт-10

Аниме | HD Rips ·· Школа убийц: Театр марионеток / Gunslinger Girl: Il Teatrino [OVA] [01-02 из 02] [Без хардсаба] [RUS(ext), JAP, SUB] [2008 г., Драма, Боевик, Приключения, Фантастика, Психология, BDRip] [720p] Galfimbul 580491647554 MB 0 0 1435315931

13:52

26-Июн-15

Аниме | HD Rips ·· Школа убийц: Театр марионеток / Gunslinger Girl: Il Teatrino [TV] [01-13 из 13] [Без хардсаба] [RUS(ext), JAP, SUB] [2008 г., Драма, Боевик, Приключения, Фантастика, Психология, BDRip] [720p] Galfimbul 35376421763.29 GB 0 0 1435310817

12:26

26-Июн-15

Аниме | HD Rips ·· Школа убийц (ТВ-1) / Gunslinger Girl (Асака Морио) [TV] [13 из 13] [без хардсаба] [RUS(ext),JAP+SUB] [2003 г., драма, приключения, фантастика, BDRip] [1080p] Polarnik 2408962694322.44 GB 0 0 1377808577

23:36

29-Авг-13

Аниме | HD Rips ·· Школа убийц: Театр марионеток [ТВ-2] / Gunslinger Girl: Il Teatrino [TV] [1-13 из 13] [RUS(int), JAP+SUB] [2008 г., драма, приключения, фантастика, BDRip] [1080p] [Любительская] L 100949129969.4 GB 0 0 1303892932

11:28

27-Апр-11

Аниме | HD Rips ·· Школа убийц [ТВ-1] / Gunslinger Girl [TV] [1-13 из 13] [RUS(ext),JAP+SUB] [2003 г.] [Драма, приключения, фантастика] [BDRip 720p] [Профессиональная] Bot 89011151718.29 GB 0 0 1286481112

22:51

7-Окт-10

Аниме | HD Rips ·· Школа убийц OVA / Gunslinger Girl: Il Teatrino OVA (Мано Рэй) [OVA] [2 из 2] [без хардсаба] [RUS(ext),JAP+SUB] [2008 г., драма, приключения, фантастика, BDRip] [720p] Bot 15429974261.44 GB 0 0 1286480816

22:46

7-Окт-10

Аниме | HD Rips ·· Школа убийц [ТВ-2] / Gunslinger Girl: Il Teatrino (Мано Рэй) [TV] [13 из 13] [без хардсаба] [JAP+SUB] [2008 г., драма, приключения, фантастика, BDRip] [1080p] Bot 94803873398.83 GB 0 0 1286480712

22:45

7-Окт-10

Аниме | HD Rips ·· Школа убийц OVA / Gunslinger Girl: Il Teatrino OVA (Мано Рэй) [OVA] [2 из 2] [без хардсаба] [JAP+SUB] [2008 г., драма, приключения, фантастика, BDRip] [1080p] Bot 13112975271.22 GB 0 0 1286480690

22:44

7-Окт-10

Еще никто не оставлял запись к записи скачать торрент Школа убийц Gunslinger Girl . Будь первым!

!Обратная связь