Скачать через торрент Школа убийц: Театр марионеток Gunslinger Girl: Il Teatrino бесплатно Аниме Все серии на русском torrent

Если у вас наблюдаются проблемы со скриншотами, переходом по ссылками, скачиванием торрентов - проблемы в блокировщике рекламы AdBlock. #хорошегоДня!


Статистика раздачи
Размер:  3.29 GB   |    Зарегистрирован:  2 года 2 месяца   |    .torrent скачан:  44 раза   |   
Раздают:  1  
   
Загрузка...
 
Автор Сообщение

Galfimbul

avatar Galfimbul



Школа убийц: Театр марионеток / Gunslinger Girl: Il Teatrino / ガンスリンガー ガール -IL TEATRINO-
Год выпуска: 2008 г.
Страна: Япония
Жанр: Драма, Боевик, Приключения, Фантастика, Психология
Тип: TV
Продолжительность: 13 эп. по 00:25:07
Режиссер: Мано Акира
Студия: Artland
Перевод:
<ol class="post-ul">
Русские субтитры от Amarillis & Decan & Jenia aka Zub & Мария Гостюхина
</ol>
Озвучка:
<ol class="post-ul">
Двухголосая от (муж/жен) Persona99 & MaxDamage
</ol>
Описание:
Когда-то у этих девочек было счастливое детство, любящие родители и радужное будущее… Но всё это исчезло в один миг. Жестокий мир лишил их не только семьи, но даже и собственных тел. Теперь они - секретное оружие на службе у правительства, полулюди, запрограммированные на уничтожение особо опасных преступников и террористов.

Модифицированные искусственные тела, специальные навыки по владению боевыми искусствами и любыми видами оружия делают их почти идеальными машинами для устранения неугодных. И хотя опытные наставники-мужчины всегда готовы прийти на помощь, девочки постоянно рискуют своей жизнью. А ведь в душе они - обычные дети, которые влюбляются и мечтают, дружат и ненавидят… И эти чувства и поступки порой могут помешать нажать на курок в нужную минуту.
Информационные ссылки: World Art || AniDB || MAL
Качество: BDRip | Рип: [YYDM-11FANS]
Тип релиза: Без хардсаба
Формат видео: MP4
Наличие линковки: Нет
Видео: AVC, 1280x720, ~1452 kbps, 23.976 fps [10 bit]
Аудио:
1. Russian AAC, 48 KHz, 161 kbps, 2 ch (внешние);
2. Japanese AAC, 48.0 KHz, 170 kbps, 2 ch;
Субтитры:
<ol class="post-ul">
Russian: ASS, внешние;
</ol>
General Format : MPEG-4 Format profile : Base Media Codec ID : isom File size : 292 MiB Duration : 25mn 7s Overall bit rate mode : Variable Overall bit rate : 1 625 Kbps Encoded date : UTC 2014-08-24 14:41:05 Tagged date : UTC 2014-08-24 14:41:05 Video #1 ID : 1 Format : AVC Format/Info : Advanced Video Codec Format profile : High 10@L4.1 Format settings, CABAC : Yes Format settings, ReFrames : 5 frames Codec ID : avc1 Codec ID/Info : Advanced Video Coding Duration : 25mn 7s Bit rate : 1 452 Kbps Maximum bit rate : 11.6 Mbps Width : 1 280 pixels Height : 720 pixels Display aspect ratio : 16:9 Frame rate mode : Variable Frame rate : 24.338 fps Original frame rate : 23.976 fps Minimum frame rate : 11.988 fps Maximum frame rate : 119.880 fps Color space : YUV Chroma subsampling : 4:2:0 Bit depth : 10 bits Scan type : Progressive Bits/(Pixel*Frame) : 0.065 Stream size : 261 MiB (89%) Writing library : x264 core 142 r2431 ac76440 Encoding settings : cabac=1 / ref=5 / deblock=1:-1:-1 / analyse=0x3:0x133 / me=umh / subme=9 / psy=1 / psy_rd=1.00:0.00 / mixed_ref=1 / me_range=32 / chroma_me=1 / trellis=2 / 8x8dct=1 / cqm=0 / deadzone=21,11 / fast_pskip=1 / chroma_qp_offset=0 / threads=12 / lookahead_threads=1 / sliced_threads=0 / nr=0 / decimate=1 / interlaced=0 / bluray_compat=0 / constrained_intra=0 / bframes=5 / b_pyramid=2 / b_adapt=2 / b_bias=0 / direct=1 / weightb=1 / open_gop=0 / weightp=2 / keyint=240 / keyint_min=23 / scenecut=56 / intra_refresh=0 / rc_lookahead=41 / rc=crf / mbtree=1 / crf=18.0 / qcomp=0.70 / qpmin=0 / qpmax=51 / qpstep=4 / ip_ratio=1.40 / aq=1:1.00 Encoded date : UTC 2014-08-24 14:40:40 Tagged date : UTC 2014-08-24 14:41:06 Audio #2 ID : 2 Format : AAC Format/Info : Advanced Audio Codec Format profile : LC Codec ID : 40 Duration : 25mn 7s Bit rate mode : Variable Bit rate : 170 Kbps Maximum bit rate : 202 Kbps Channel(s) : 2 channels Channel positions : Front: L R Sampling rate : 48.0 KHz Compression mode : Lossy Stream size : 30.5 MiB (10%) Encoded date : UTC 2014-08-24 14:39:37 Tagged date : UTC 2014-08-24 14:41:06

01. The Distance Between Two People - Brothers and Sisters
02. Pinocchio
03. Simulacra
04. Angelica's Return
05. Transient Reminiscence
06. The Tibetan Terrier Retires
07. Katerina, Revenge of Torus
08. Claes First Day
09. Wise Serpent, Pure Dove
10. Flower of Zeni
11. Budding Feelings
12. Fighting Doll
13. And Pinocchio Became Human


Трекер:  [ 26-Июн-2015 11:00 ]

  

Скачать .torrent

Размер .torrent файла 25 KB


Размер: 3.29 GB
Хэш (hash) релиза: be44abf9cbe7dd401af04f32b63fc7e2c82f61ca
Подписка на обновления:

Еще никто не оставлял запись к записи скачать торрент Школа убийц: Театр марионеток Gunslinger Girl: Il Teatrino . Будь первым!

!Обратная связь