Скачать через торрент музыку Тысячелетие Millennium: Volumes One & Two бесплатно без регистрации torrent

Если у вас наблюдаются проблемы со скриншотами, переходом по ссылками, скачиванием торрентов - проблемы в блокировщике рекламы AdBlock. #хорошегоДня!


Статистика раздачи
Размер:  1.42 GB   |    Зарегистрирован:  2 года 3 месяца   |    .torrent скачан:  47 раз   |   
Раздают:  1  
   
Загрузка...
 
Автор Сообщение

Galfimbul

avatar Galfimbul



Тысячелетие / Millennium
Music by Mark Snow
Limited Edition ●★● 2CD SET

Жанр: Score | Дата выпуска: 2015
Издатель (лейбл): La-La Land Records | Номер по каталогу: см. спойлеры
Аудиокодек: FLAC (*.flac) | Тип рипа: image+.cue | Битрейт аудио: lossless
Общая продолжительность: 05:00:45
Источник: Рипы оригинальных дисков из личной коллекции

Тысячелетие / Millennium: Volume One
Music by Mark Snow
Limited Edition of 1000 Units
2CD SET


Жанр: Score | Дата выпуска: 2 июня 2015
Издатель (лейбл): La-La Land Records | Номер по каталогу: LLLCD 1083
Аудиокодек: FLAC (*.flac) | Тип рипа: image+.cue | Битрейт аудио: lossless
Общая продолжительность: 02:27:21
Источник: Рипы оригинальных дисков из личной коллекции
Продолжительность: 01:13:36

<div style="margin-left: 2em" class="post-ul">01. Main Title A [00:53]

<div style="margin-left: 2em" class="post-ul">4C79 - PILOT</div>
02. Big Yellow House [01:56]
03. Rain [03:30]
04. Exterminated [04:53]

<div style="margin-left: 2em" class="post-ul">4C06 - BLOOD RELATIVES</div>
05. Mourners / Dragged In [03:24]

<div style="margin-left: 2em" class="post-ul">4C07 - THE WELL WORN LOCK</div>
06. Lock [02:45]
07. Lock Part Two [00:57]

<div style="margin-left: 2em" class="post-ul">4C10 - THE WILD AND THE INNOCENT</div>
08. Death Prayer [03:32]

<div style="margin-left: 2em" class="post-ul">4C20 - MARANTHA</div>
09. Chernobyl [04:00]
10. Yaponchik [01:00]
11. Myth No More / Antichrist [05:07]
12. Saviour [07:49]

<div style="margin-left: 2em" class="post-ul">4C21 - PAPER DOVE</div>
13. Crushed Dove [01:54]

<div style="margin-left: 2em" class="post-ul">5C01 - THE BEGINNING AND THE END</div>
14. Headlights [02:53]
15. Check / Get It Back Again [01:39]

<div style="margin-left: 2em" class="post-ul">5C04 - MONSTER</div>
16. Henny Penny [01:53]
17. M-Files / Little Pigs [05:00]

<div style="margin-left: 2em" class="post-ul">5C06 - THE CURSE OF FRANK BLACK</div>
18. Jack O'Lantern [01:20]
19. Battery [02:04]
20. Acts [01:48]
21. 790 Days [04:03]

<div style="margin-left: 2em" class="post-ul">5C08 - THE HAND OF ST. SEBASTIAN</div>
22. Comatose / Origins / Woods [01:22]

<div style="margin-left: 2em" class="post-ul">5C09 - JOSE CHUNG'S DOOMSDAY DEFENSE</div>
23. The Writer [02:53]
24. Goopy (Alt) [05:37]
25. Final Chapter [01:42]
26. End Title [00:33]</div>
Exact Audio Copy V1.0 beta 4 from 7. December 2014

EAC extraction logfile from 20. June 2015, 11:46

Mark Snow / Millennium: Volume One - Disc 1

Used drive : TSSTcorpCDDVDW TS-L633C Adapter: 1 ID: 0

Read mode : SecureUtilize accurate stream : YesDefeat audio cache : YesMake use of C2 pointers : No

Read offset correction : 6Overread into Lead-In and Lead-Out : NoFill up missing offset samples with silence : YesDelete leading and trailing silent blocks : NoNull samples used in CRC calculations : YesUsed interface : Native Win32 interface for Win NT & 2000

Used output format : Internal WAV RoutinesSample format : 44.100 Hz; 16 Bit; Stereo

TOC of the extracted CD

Track | Start | Length | Start sector | End sector --------------------------------------------------------- 1 | 0:00.00 | 0:54.22 | 0 | 4071 2 | 0:54.22 | 1:56.30 | 4072 | 12801 3 | 2:50.52 | 3:29.21 | 12802 | 28497 4 | 6:19.73 | 4:57.55 | 28498 | 50827 5 | 11:17.53 | 3:23.55 | 50828 | 66107 6 | 14:41.33 | 2:41.34 | 66108 | 78216 7 | 17:22.67 | 0:52.03 | 78217 | 82119 8 | 18:14.70 | 3:30.01 | 82120 | 97870 9 | 21:44.71 | 3:58.48 | 97871 | 115768 10 | 25:43.44 | 0:58.35 | 115769 | 120153 11 | 26:42.04 | 5:06.00 | 120154 | 143103 12 | 31:48.04 | 7:46.74 | 143104 | 178127 13 | 39:35.03 | 1:56.34 | 178128 | 186861 14 | 41:31.37 | 2:52.27 | 186862 | 199788 15 | 44:23.64 | 1:38.31 | 199789 | 207169 16 | 46:02.20 | 1:51.34 | 207170 | 215528 17 | 47:53.54 | 4:58.00 | 215529 | 237878 18 | 52:51.54 | 1:19.10 | 237879 | 243813 19 | 54:10.64 | 1:59.63 | 243814 | 252801 20 | 56:10.52 | 1:47.40 | 252802 | 260866 21 | 57:58.17 | 3:58.17 | 260867 | 278733 22 | 61:56.34 | 1:22.00 | 278734 | 284883 23 | 63:18.34 | 2:51.67 | 284884 | 297775 24 | 66:10.26 | 5:34.63 | 297776 | 322888 25 | 71:45.14 | 1:39.33 | 322889 | 330346 26 | 73:24.47 | 0:32.72 | 330347 | 332818

Range status and errors

Selected range

Filename D:\Mark Snow - Millennium [by italia57]\2015 - Volume One [LLLCD 1083]\Disc 1\Mark Snow - Millennium - Volume 1 - Disc 1.wav

Peak level 99.9 % Extraction speed 1.6 X Range quality 100.0 % Test CRC 592FA7DB Copy CRC 592FA7DB Copy OK

No errors occurred

AccurateRip summary

Track 1 cannot be verified as accurate (confidence 12) [70AFD4C9], AccurateRip returned [ACF2FE63] (AR v2)Track 2 cannot be verified as accurate (confidence 11) [EFEF8D9D], AccurateRip returned [86AF0470] (AR v2)Track 3 cannot be verified as accurate (confidence 12) [39F03686], AccurateRip returned [1CB32AF7] (AR v2)Track 4 cannot be verified as accurate (confidence 12) [AC22AE1B], AccurateRip returned [0B809814] (AR v2)Track 5 cannot be verified as accurate (confidence 12) [24785E75], AccurateRip returned [61EC6DA7] (AR v2)Track 6 cannot be verified as accurate (confidence 12) [03739554], AccurateRip returned [0D19A1DB] (AR v2)Track 7 cannot be verified as accurate (confidence 12) [2E88FC58], AccurateRip returned [FE5E04ED] (AR v2)Track 8 cannot be verified as accurate (confidence 12) [4E5769AD], AccurateRip returned [0DC0519D] (AR v2)Track 9 cannot be verified as accurate (confidence 12) [A4C54411], AccurateRip returned [0DEA7B34] (AR v2)Track 10 cannot be verified as accurate (confidence 12) [4B34565B], AccurateRip returned [CBAA55EE] (AR v2)Track 11 cannot be verified as accurate (confidence 12) [0C2618F2], AccurateRip returned [8331B42F] (AR v2)Track 12 cannot be verified as accurate (confidence 12) [0540362F], AccurateRip returned [F29725FB] (AR v2)Track 13 cannot be verified as accurate (confidence 12) [8C8A39E6], AccurateRip returned [7FC3A258] (AR v2)Track 14 cannot be verified as accurate (confidence 12) [E986E05E], AccurateRip returned [BA255092] (AR v2)Track 15 cannot be verified as accurate (confidence 12) [6E125F82], AccurateRip returned [735E84E2] (AR v2)Track 16 cannot be verified as accurate (confidence 12) [1BB5D2DD], AccurateRip returned [1CCBC185] (AR v2)Track 17 cannot be verified as accurate (confidence 12) [D39F919D], AccurateRip returned [830FE854] (AR v2)Track 18 cannot be verified as accurate (confidence 12) [0A15AF1A], AccurateRip returned [9479D6B7] (AR v2)Track 19 cannot be verified as accurate (confidence 12) [BE11D5EA], AccurateRip returned [21CB1F6F] (AR v2)Track 20 cannot be verified as accurate (confidence 12) [E62B72A4], AccurateRip returned [66D200FA] (AR v2)Track 21 cannot be verified as accurate (confidence 12) [B3008C72], AccurateRip returned [9AC466F5] (AR v2)Track 22 cannot be verified as accurate (confidence 12) [34A02C82], AccurateRip returned [8DD7F869] (AR v2)Track 23 cannot be verified as accurate (confidence 12) [B3233B09], AccurateRip returned [D959C799] (AR v2)Track 24 cannot be verified as accurate (confidence 12) [ACEE9F9C], AccurateRip returned [BF7BA894] (AR v2)Track 25 cannot be verified as accurate (confidence 12) [6CB8E623], AccurateRip returned [D41B077D] (AR v2)Track 26 cannot be verified as accurate (confidence 12) [810747EF], AccurateRip returned [F1231F3D] (AR v2)

No tracks could be verified as accurateYou may have a different pressing from the one(s) in the database

End of status report

---- CUETools DB Plugin V2.1.4

[CTDB TOCID: RLrPH.NdZUl6cNtCtHVLoZdO6no-] foundSubmit result: RLrPH.NdZUl6cNtCtHVLoZdO6no- has been confirmedTrack | CTDB Status 1 | (6/6) Accurately ripped 2 | (6/6) Accurately ripped 3 | (6/6) Accurately ripped 4 | (6/6) Accurately ripped 5 | (6/6) Accurately ripped 6 | (6/6) Accurately ripped 7 | (6/6) Accurately ripped 8 | (6/6) Accurately ripped 9 | (6/6) Accurately ripped 10 | (6/6) Accurately ripped 11 | (6/6) Accurately ripped 12 | (6/6) Accurately ripped 13 | (6/6) Accurately ripped 14 | (6/6) Accurately ripped 15 | (6/6) Accurately ripped 16 | (6/6) Accurately ripped 17 | (6/6) Accurately ripped 18 | (6/6) Accurately ripped 19 | (6/6) Accurately ripped 20 | (6/6) Accurately ripped 21 | (6/6) Accurately ripped 22 | (6/6) Accurately ripped 23 | (6/6) Accurately ripped 24 | (6/6) Accurately ripped 25 | (6/6) Accurately ripped 26 | (6/6) Accurately ripped

==== Log checksum F14D7CCC7C0E7FD48FF45B3A65ADABC0EE057A6A0D738E0EC5A51686C237F06D ====
REM GENRE ScoreREM DATE 2015REM DISCID 7D11551AREM COMMENT "ExactAudioCopy v1.0b4"PERFORMER "Mark Snow"TITLE "Millennium: Volume One - Disc 1"FILE "Mark Snow - Millennium - Volume 1 - Disc 1.flac" WAVE TRACK 01 AUDIO TITLE "Main Title A" PERFORMER "Mark Snow" FLAGS DCP INDEX 01 00:00:00 TRACK 02 AUDIO TITLE "Big Yellow House" PERFORMER "Mark Snow" FLAGS DCP INDEX 00 00:52:22 INDEX 01 00:54:22 TRACK 03 AUDIO TITLE "Rain" PERFORMER "Mark Snow" FLAGS DCP INDEX 00 02:48:52 INDEX 01 02:50:52 TRACK 04 AUDIO TITLE "Exterminated" PERFORMER "Mark Snow" FLAGS DCP INDEX 00 06:17:73 INDEX 01 06:19:73 TRACK 05 AUDIO TITLE "Mourners; Dragged In" PERFORMER "Mark Snow" FLAGS DCP INDEX 00 11:14:53 INDEX 01 11:17:53 TRACK 06 AUDIO TITLE "Lock" PERFORMER "Mark Snow" FLAGS DCP INDEX 00 14:38:33 INDEX 01 14:41:33 TRACK 07 AUDIO TITLE "Lock Part Two" PERFORMER "Mark Snow" FLAGS DCP INDEX 00 17:20:67 INDEX 01 17:22:67 TRACK 08 AUDIO TITLE "Death Prayer" PERFORMER "Mark Snow" FLAGS DCP INDEX 00 18:11:70 INDEX 01 18:14:70 TRACK 09 AUDIO TITLE "Chernobyl" PERFORMER "Mark Snow" FLAGS DCP INDEX 00 21:41:71 INDEX 01 21:44:71 TRACK 10 AUDIO TITLE "Yaponchik" PERFORMER "Mark Snow" FLAGS DCP INDEX 00 25:41:44 INDEX 01 25:43:44 TRACK 11 AUDIO TITLE "Myth No More; Antichrist" PERFORMER "Mark Snow" FLAGS DCP INDEX 00 26:40:04 INDEX 01 26:42:04 TRACK 12 AUDIO TITLE "Savior" PERFORMER "Mark Snow" FLAGS DCP INDEX 00 31:46:04 INDEX 01 31:48:04 TRACK 13 AUDIO TITLE "Crushed Dove" PERFORMER "Mark Snow" FLAGS DCP INDEX 00 39:32:03 INDEX 01 39:35:03 TRACK 14 AUDIO TITLE "Headlights" PERFORMER "Mark Snow" FLAGS DCP INDEX 00 41:28:37 INDEX 01 41:31:37 TRACK 15 AUDIO TITLE "Check; Get It Back Again" PERFORMER "Mark Snow" FLAGS DCP INDEX 00 44:21:64 INDEX 01 44:23:64 TRACK 16 AUDIO TITLE "Henny Penny" PERFORMER "Mark Snow" FLAGS DCP INDEX 00 45:59:20 INDEX 01 46:02:20 TRACK 17 AUDIO TITLE "M-Files; Little Pigs" PERFORMER "Mark Snow" FLAGS DCP INDEX 00 47:51:54 INDEX 01 47:53:54 TRACK 18 AUDIO TITLE "Jack O' Lantern" PERFORMER "Mark Snow" FLAGS DCP INDEX 00 52:48:54 INDEX 01 52:51:54 TRACK 19 AUDIO TITLE "Battery" PERFORMER "Mark Snow" FLAGS DCP INDEX 00 54:08:64 INDEX 01 54:10:64 TRACK 20 AUDIO TITLE "Acts" PERFORMER "Mark Snow" FLAGS DCP INDEX 00 56:08:52 INDEX 01 56:10:52 TRACK 21 AUDIO TITLE "790 Days" PERFORMER "Mark Snow" FLAGS DCP INDEX 00 57:56:17 INDEX 01 57:58:17 TRACK 22 AUDIO TITLE "Comatose; Origins; Woods" PERFORMER "Mark Snow" FLAGS DCP INDEX 00 61:53:34 INDEX 01 61:56:34 TRACK 23 AUDIO TITLE "The Writer" PERFORMER "Mark Snow" FLAGS DCP INDEX 00 63:15:34 INDEX 01 63:18:34 TRACK 24 AUDIO TITLE "Goopy (Alt)" PERFORMER "Mark Snow" FLAGS DCP INDEX 00 66:08:26 INDEX 01 66:10:26 TRACK 25 AUDIO TITLE "Final Chapter" PERFORMER "Mark Snow" FLAGS DCP INDEX 00 71:43:14 INDEX 01 71:45:14 TRACK 26 AUDIO TITLE "End Title" PERFORMER "Mark Snow" FLAGS DCP INDEX 00 73:22:47 INDEX 01 73:24:47
Продолжительность: 01:13:12

<div style="margin-left: 2em" class="post-ul">01. Main Title - Long Version [03:32]

<div style="margin-left: 2em" class="post-ul">5C10 - MIDNIGHT OF THE CENTURY</div>
02. Delete [01:39]
03. Branches / Angels [04:52]

<div style="margin-left: 2em" class="post-ul">5C14 - OWLS</div>
04. Damascus [04:36]
05. The Subject [03:41]
06. Aerotech [01:32]

<div style="margin-left: 2em" class="post-ul">5C15 - ROOSTERS</div>
07. Trail [01:14]

<div style="margin-left: 2em" class="post-ul">5C21 - SOMEHOW, SATAN GOT BEHIND ME</div>
08. Alarm [01:51]
09. X-Fyles [02:08]
10. Sympathy for The... [02:20]

<div style="margin-left: 2em" class="post-ul">5C23 - THE TIME IS NOW</div>
11. Hot Birds [01:33]
12. The Peter Principle [03:07]
13. Catherine [02:33]

<div style="margin-left: 2em" class="post-ul">6ABC04 - CLOSURE</div>
14. Silence Is Golden [03:16]
15. Candy [07:30]

<div style="margin-left: 2em" class="post-ul">6ABC08 - OMERTA</div>
16. Santos Elves [03:51]
17. Unwrapped Gift [02:48]
18. Love Jordan / Hobbit House [02:20]
19. The Way It Was [03:55]

<div style="margin-left: 2em" class="post-ul">6ABC22 - GOODBYE TO ALL THAT</div>
20. Shrapnel [03:54]
21. Channel 14 [04:15]
22. Locked Out [01:12]
23. Drilling [04:56]
24. End Title [00:37]

<div style="margin-left: 2em" class="post-ul">BONUS TRACK</div>
25. Main Title - Vocal Remix [00:50]</div>
Exact Audio Copy V1.0 beta 4 from 7. December 2014

EAC extraction logfile from 20. June 2015, 12:32

Mark Snow / Millennium: Volume One - Disc 2

Used drive : TSSTcorpCDDVDW TS-L633C Adapter: 1 ID: 0

Read mode : SecureUtilize accurate stream : YesDefeat audio cache : YesMake use of C2 pointers : No

Read offset correction : 6Overread into Lead-In and Lead-Out : NoFill up missing offset samples with silence : YesDelete leading and trailing silent blocks : NoNull samples used in CRC calculations : YesUsed interface : Native Win32 interface for Win NT & 2000

Used output format : Internal WAV RoutinesSample format : 44.100 Hz; 16 Bit; Stereo

TOC of the extracted CD

Track | Start | Length | Start sector | End sector --------------------------------------------------------- 1 | 0:00.00 | 3:35.63 | 0 | 16187 2 | 3:35.63 | 1:37.35 | 16188 | 23497 3 | 5:13.23 | 4:52.09 | 23498 | 45406 4 | 10:05.32 | 4:35.14 | 45407 | 66045 5 | 14:40.46 | 3:39.69 | 66046 | 82539 6 | 18:20.40 | 1:32.38 | 82540 | 89477 7 | 19:53.03 | 1:14.21 | 89478 | 95048 8 | 21:07.24 | 1:46.36 | 95049 | 103034 9 | 22:53.60 | 2:03.42 | 103035 | 112301 10 | 24:57.27 | 2:01.54 | 112302 | 121430 11 | 26:59.06 | 1:32.19 | 121431 | 128349 12 | 28:31.25 | 3:06.53 | 128350 | 142352 13 | 31:38.03 | 2:29.33 | 142353 | 153560 14 | 34:07.36 | 3:08.23 | 153561 | 167683 15 | 37:15.59 | 7:26.67 | 167684 | 201200 16 | 44:42.51 | 3:50.06 | 201201 | 218456 17 | 48:32.57 | 2:46.57 | 218457 | 230963 18 | 51:19.39 | 2:18.42 | 230964 | 241355 19 | 53:38.06 | 3:52.54 | 241356 | 258809 20 | 57:30.60 | 3:52.47 | 258810 | 276256 21 | 61:23.32 | 4:14.05 | 276257 | 295311 22 | 65:37.37 | 1:20.69 | 295312 | 301380 23 | 66:58.31 | 4:51.13 | 301381 | 323218 24 | 71:49.44 | 0:44.57 | 323219 | 326575 25 | 72:34.26 | 0:50.15 | 326576 | 330340

Range status and errors

Selected range

Filename D:\Mark Snow - Millennium [by italia57]\2015 - Volume One [LLLCD 1083]\Disc 2\Mark Snow - Millennium - Volume 1 - Disc 2.wav

Peak level 99.6 % Extraction speed 3.9 X Range quality 100.0 % Test CRC 115D78D2 Copy CRC 115D78D2 Copy OK

No errors occurred

AccurateRip summary

Track 1 cannot be verified as accurate (confidence 13) [C39AB058], AccurateRip returned [BD1F6DB4] (AR v2)Track 2 cannot be verified as accurate (confidence 12) [9DA8E8D8], AccurateRip returned [62FD081D] (AR v2)Track 3 cannot be verified as accurate (confidence 12) [B5FA0325], AccurateRip returned [816BE8CE] (AR v2)Track 4 cannot be verified as accurate (confidence 12) [5743DF9D], AccurateRip returned [2CF4CB82] (AR v2)Track 5 cannot be verified as accurate (confidence 12) [68CEC7B7], AccurateRip returned [82C5983C] (AR v2)Track 6 cannot be verified as accurate (confidence 12) [A5056EC5], AccurateRip returned [5EB9444F] (AR v2)Track 7 cannot be verified as accurate (confidence 12) [18FB8725], AccurateRip returned [6DC7DBB8] (AR v2)Track 8 cannot be verified as accurate (confidence 12) [D4EE2EDC], AccurateRip returned [07BDAB59] (AR v2)Track 9 cannot be verified as accurate (confidence 12) [1C8E4909], AccurateRip returned [1C23502D] (AR v2)Track 10 cannot be verified as accurate (confidence 12) [AB630E93], AccurateRip returned [261AA600] (AR v2)Track 11 cannot be verified as accurate (confidence 12) [133D7264], AccurateRip returned [0F1978EE] (AR v2)Track 12 cannot be verified as accurate (confidence 12) [3E397899], AccurateRip returned [A2573A24] (AR v2)Track 13 cannot be verified as accurate (confidence 12) [97FF5BF4], AccurateRip returned [FC33B093] (AR v2)Track 14 cannot be verified as accurate (confidence 12) [8809777F], AccurateRip returned [2B25B57F] (AR v2)Track 15 cannot be verified as accurate (confidence 12) [A9AD4171], AccurateRip returned [DF7B2DAA] (AR v2)Track 16 cannot be verified as accurate (confidence 12) [774E7BF8], AccurateRip returned [16BA0AE3] (AR v2)Track 17 cannot be verified as accurate (confidence 12) [B5CCBFE0], AccurateRip returned [4ABAA575] (AR v2)Track 18 cannot be verified as accurate (confidence 12) [39C82D4F], AccurateRip returned [0445E4D4] (AR v2)Track 19 cannot be verified as accurate (confidence 12) [FE0DB012], AccurateRip returned [F945E2D5] (AR v2)Track 20 cannot be verified as accurate (confidence 12) [1EAC3237], AccurateRip returned [104CD364] (AR v2)Track 21 cannot be verified as accurate (confidence 12) [04CF697C], AccurateRip returned [982968E2] (AR v2)Track 22 cannot be verified as accurate (confidence 12) [438B0C57], AccurateRip returned [EA8E2517] (AR v2)Track 23 cannot be verified as accurate (confidence 12) [46C9A9DE], AccurateRip returned [4BDFFC53] (AR v2)Track 24 cannot be verified as accurate (confidence 12) [0A6D7AAC], AccurateRip returned [3373F35C] (AR v2)Track 25 cannot be verified as accurate (confidence 13) [3AB4B05B], AccurateRip returned [361E1FF2] (AR v2)

No tracks could be verified as accurateYou may have a different pressing from the one(s) in the database

End of status report

---- CUETools DB Plugin V2.1.4

[CTDB TOCID: YrRI5jpxgyu5KSVzwghWNGsmPPo-] database access error: Запрос был прерван: Запрос отменен.

==== Log checksum 8A947EC7B1056912AEB42AE3139FC188FD3EF418EA37F3343F291E29B463F86F ====
REM GENRE SoundtrackREM DATE 2015REM DISCID 53113419REM COMMENT "ExactAudioCopy v1.0b4"PERFORMER "Mark Snow"TITLE "Millennium: Volume One - Disc 2"FILE "Mark Snow - Millennium - Volume 1 - Disc 2.flac" WAVE TRACK 01 AUDIO TITLE "Main Title - Long Version" PERFORMER "Mark Snow" FLAGS DCP INDEX 01 00:00:00 TRACK 02 AUDIO TITLE "Delete" PERFORMER "Mark Snow" FLAGS DCP INDEX 00 03:33:63 INDEX 01 03:35:63 TRACK 03 AUDIO TITLE "Branches; Angels" PERFORMER "Mark Snow" FLAGS DCP INDEX 00 05:11:23 INDEX 01 05:13:23 TRACK 04 AUDIO TITLE "Damascus" PERFORMER "Mark Snow" FLAGS DCP INDEX 00 10:02:32 INDEX 01 10:05:32 TRACK 05 AUDIO TITLE "The Subject" PERFORMER "Mark Snow" FLAGS DCP INDEX 00 14:38:46 INDEX 01 14:40:46 TRACK 06 AUDIO TITLE "Aerotech" PERFORMER "Mark Snow" FLAGS DCP INDEX 00 18:18:40 INDEX 01 18:20:40 TRACK 07 AUDIO TITLE "Trail" PERFORMER "Mark Snow" FLAGS DCP INDEX 00 19:50:03 INDEX 01 19:53:03 TRACK 08 AUDIO TITLE "Alarm" PERFORMER "Mark Snow" FLAGS DCP INDEX 00 21:04:24 INDEX 01 21:07:24 TRACK 09 AUDIO TITLE "X-Fyles" PERFORMER "Mark Snow" FLAGS DCP INDEX 00 22:51:60 INDEX 01 22:53:60 TRACK 10 AUDIO TITLE "Sympathy for The..." PERFORMER "Mark Snow" FLAGS DCP INDEX 00 24:55:27 INDEX 01 24:57:27 TRACK 11 AUDIO TITLE "Hot Birds" PERFORMER "Mark Snow" FLAGS DCP INDEX 00 26:56:06 INDEX 01 26:59:06 TRACK 12 AUDIO TITLE "The Peter Principle" PERFORMER "Mark Snow" FLAGS DCP INDEX 00 28:29:25 INDEX 01 28:31:25 TRACK 13 AUDIO TITLE "Catherine" PERFORMER "Mark Snow" FLAGS DCP INDEX 00 31:36:03 INDEX 01 31:38:03 TRACK 14 AUDIO TITLE "Silence is Golden" PERFORMER "Mark Snow" FLAGS DCP INDEX 00 34:04:36 INDEX 01 34:07:36 TRACK 15 AUDIO TITLE "Candy" PERFORMER "Mark Snow" FLAGS DCP INDEX 00 37:13:59 INDEX 01 37:15:59 TRACK 16 AUDIO TITLE "Santos Elves" PERFORMER "Mark Snow" FLAGS DCP INDEX 00 44:39:51 INDEX 01 44:42:51 TRACK 17 AUDIO TITLE "Unwrapped Gift" PERFORMER "Mark Snow" FLAGS DCP INDEX 00 48:30:57 INDEX 01 48:32:57 TRACK 18 AUDIO TITLE "Love Jordan; Hobbit House" PERFORMER "Mark Snow" FLAGS DCP INDEX 00 51:17:39 INDEX 01 51:19:39 TRACK 19 AUDIO TITLE "The Way It Was" PERFORMER "Mark Snow" FLAGS DCP INDEX 00 53:36:06 INDEX 01 53:38:06 TRACK 20 AUDIO TITLE "Shrapnel" PERFORMER "Mark Snow" FLAGS DCP INDEX 00 57:27:60 INDEX 01 57:30:60 TRACK 21 AUDIO TITLE "Channel 14" PERFORMER "Mark Snow" FLAGS DCP INDEX 00 61:21:32 INDEX 01 61:23:32 TRACK 22 AUDIO TITLE "Locked Out" PERFORMER "Mark Snow" FLAGS DCP INDEX 00 65:35:37 INDEX 01 65:37:37 TRACK 23 AUDIO TITLE "Drilling" PERFORMER "Mark Snow" FLAGS DCP INDEX 00 66:56:31 INDEX 01 66:58:31 TRACK 24 AUDIO TITLE "End Title" PERFORMER "Mark Snow" FLAGS DCP INDEX 00 71:47:44 INDEX 01 71:49:44 TRACK 25 AUDIO TITLE "Main Title - Vocal Remix" PERFORMER "Mark Snow" FLAGS DCP INDEX 00 72:24:26 INDEX 01 72:34:26

Тысячелетие / Millennium: Volume Two
Music by Mark Snow
Limited Edition of 2000 Units
2CD SET


Жанр: Score | Дата выпуска: 2 июня 2015
Издатель (лейбл): La-La Land Records | Номер по каталогу: LLLCD 1352
Аудиокодек: FLAC (*.flac) | Тип рипа: image+.cue | Битрейт аудио: lossless
Общая продолжительность: 02:33:24
Источник: Рипы оригинальных дисков из личной коллекции
Продолжительность: 01:15:00

<div style="margin-left: 2em" class="post-ul">01. Main Title [00:54]

<div style="margin-left: 2em" class="post-ul">4C16 - COVENANT</div>
02. Spinning [03:33]
03. Failing at Home [07:09]

<div style="margin-left: 2em" class="post-ul">4C17 - LAMENTATION</div>
04. The Surgeon [03:30]
05. Alpine Page [02:15]
06. Kidney Plate [05:18]
07. Dude Looks Like a Lady [01:29]

<div style="margin-left: 2em" class="post-ul">4C01 - GEHENNA</div>
08. Dylan [04:34]
09. Gehenna Part I [06:41]
10. Gehenna Part II [03:01]

<div style="margin-left: 2em" class="post-ul">4C04 - THE JUDGE</div>
11. Links [02:35]
12. To The Hogs [06:23]

<div style="margin-left: 2em" class="post-ul">5C22 - THE FORTH HORSEMAN</div>
13. The Bleed [03:29]

<div style="margin-left: 2em" class="post-ul">4C12 - FORCE MAJEURE</div>
14. Hail Lauren [02:08]
15. Alignment [03:17]
16. Pugilistic Attitude [01:55]
17. All His Children [06:28]

<div style="margin-left: 2em" class="post-ul">4C18 - POWERS, PRINCIPALITIES, THRONES AND DOMINIONS</div>
18. The Ghost of Bletch [02:53]
19. The Razor's Edge [04:47]
20. A Unique Perspective [01:51]</div>
Exact Audio Copy V1.0 beta 4 from 7. December 2014

EAC extraction logfile from 20. June 2015, 13:22

Mark Snow / Millennium: Volume Two - Disc 1

Used drive : TSSTcorpCDDVDW TS-L633C Adapter: 1 ID: 0

Read mode : SecureUtilize accurate stream : YesDefeat audio cache : YesMake use of C2 pointers : No

Read offset correction : 6Overread into Lead-In and Lead-Out : NoFill up missing offset samples with silence : YesDelete leading and trailing silent blocks : NoNull samples used in CRC calculations : YesUsed interface : Native Win32 interface for Win NT & 2000

Used output format : Internal WAV RoutinesSample format : 44.100 Hz; 16 Bit; Stereo

TOC of the extracted CD

Track | Start | Length | Start sector | End sector --------------------------------------------------------- 1 | 0:00.00 | 0:54.27 | 0 | 4076 2 | 0:54.27 | 3:34.50 | 4077 | 20176 3 | 4:29.02 | 7:13.15 | 20177 | 52666 4 | 11:42.17 | 3:32.20 | 52667 | 68586 5 | 15:14.37 | 2:16.58 | 68587 | 78844 6 | 17:31.20 | 5:19.53 | 78845 | 102822 7 | 22:50.73 | 1:33.30 | 102823 | 109827 8 | 24:24.28 | 4:35.56 | 109828 | 130508 9 | 29:00.09 | 6:43.01 | 130509 | 160734 10 | 35:43.10 | 3:04.57 | 160735 | 174591 11 | 38:47.67 | 2:37.61 | 174592 | 186427 12 | 41:25.53 | 6:26.61 | 186428 | 215438 13 | 47:52.39 | 3:32.74 | 215439 | 231412 14 | 51:25.38 | 2:09.51 | 231413 | 241138 15 | 53:35.14 | 3:19.03 | 241139 | 256066 16 | 56:54.17 | 1:57.09 | 256067 | 264850 17 | 58:51.26 | 6:32.31 | 264851 | 294281 18 | 65:23.57 | 2:55.43 | 294282 | 307449 19 | 68:19.25 | 4:48.65 | 307450 | 329114 20 | 73:08.15 | 1:51.26 | 329115 | 337465

Range status and errors

Selected range

Filename D:\Mark Snow - Millennium [by italia57]\2015 - Volume Two [LLLCD 1352]\Disc 1\Mark Snow - Millennium - Volume 2 - Disc 1.wav

Peak level 99.4 % Extraction speed 3.9 X Range quality 100.0 % Test CRC 19E69A34 Copy CRC 19E69A34 Copy OK

No errors occurred

AccurateRip summary

Track 1 not present in databaseTrack 2 not present in databaseTrack 3 not present in databaseTrack 4 not present in databaseTrack 5 not present in databaseTrack 6 not present in databaseTrack 7 not present in databaseTrack 8 not present in databaseTrack 9 not present in databaseTrack 10 not present in databaseTrack 11 not present in databaseTrack 12 not present in databaseTrack 13 not present in databaseTrack 14 not present in databaseTrack 15 not present in databaseTrack 16 not present in databaseTrack 17 not present in databaseTrack 18 not present in databaseTrack 19 not present in databaseTrack 20 not present in database

None of the tracks are present in the AccurateRip database

End of status report

---- CUETools DB Plugin V2.1.4

[CTDB TOCID: S5hvjHFW9TMeeXYjMEay.EwDiik-] foundSubmit result: S5hvjHFW9TMeeXYjMEay.EwDiik- has been confirmedTrack | CTDB Status 1 | (5/5) Accurately ripped 2 | (5/5) Accurately ripped 3 | (5/5) Accurately ripped 4 | (5/5) Accurately ripped 5 | (5/5) Accurately ripped 6 | (5/5) Accurately ripped 7 | (5/5) Accurately ripped 8 | (5/5) Accurately ripped 9 | (5/5) Accurately ripped 10 | (5/5) Accurately ripped 11 | (5/5) Accurately ripped 12 | (5/5) Accurately ripped 13 | (5/5) Accurately ripped 14 | (5/5) Accurately ripped 15 | (5/5) Accurately ripped 16 | (5/5) Accurately ripped 17 | (5/5) Accurately ripped 18 | (5/5) Accurately ripped 19 | (5/5) Accurately ripped 20 | (5/5) Accurately ripped

==== Log checksum 7BDA7B8F9DBDC0D4070D81D683456996A83D2D89562BE34ECFE744260AD2B07A ====
REM GENRE SoundtrackREM DATE 2015REM DISCID 12119314REM COMMENT "ExactAudioCopy v1.0b4"PERFORMER "Mark Snow"TITLE "Millennium: Volume Two - Disc 1"FILE "Mark Snow - Millennium - Volume 2 - Disc 1.flac" WAVE TRACK 01 AUDIO TITLE "Main Title" PERFORMER "Mark Snow" FLAGS DCP INDEX 01 00:00:00 TRACK 02 AUDIO TITLE "Spinning" PERFORMER "Mark Snow" FLAGS DCP INDEX 00 00:52:27 INDEX 01 00:54:27 TRACK 03 AUDIO TITLE "Failing at Home" PERFORMER "Mark Snow" FLAGS DCP INDEX 00 04:27:02 INDEX 01 04:29:02 TRACK 04 AUDIO TITLE "The Surgeon" PERFORMER "Mark Snow" FLAGS DCP INDEX 00 11:38:17 INDEX 01 11:42:17 TRACK 05 AUDIO TITLE "Alpine Page" PERFORMER "Mark Snow" FLAGS DCP INDEX 00 15:12:37 INDEX 01 15:14:37 TRACK 06 AUDIO TITLE "Kidney Plate" PERFORMER "Mark Snow" FLAGS DCP INDEX 00 17:29:20 INDEX 01 17:31:20 TRACK 07 AUDIO TITLE "Dude Looks Like a Lady" PERFORMER "Mark Snow" FLAGS DCP INDEX 00 22:48:73 INDEX 01 22:50:73 TRACK 08 AUDIO TITLE "Dylan" PERFORMER "Mark Snow" FLAGS DCP INDEX 00 24:20:28 INDEX 01 24:24:28 TRACK 09 AUDIO TITLE "Gehenna Part I" PERFORMER "Mark Snow" FLAGS DCP INDEX 00 28:58:09 INDEX 01 29:00:09 TRACK 10 AUDIO TITLE "Gehenna Part II" PERFORMER "Mark Snow" FLAGS DCP INDEX 00 35:41:10 INDEX 01 35:43:10 TRACK 11 AUDIO TITLE "Links" PERFORMER "Mark Snow" FLAGS DCP INDEX 00 38:43:67 INDEX 01 38:47:67 TRACK 12 AUDIO TITLE "To The Hogs" PERFORMER "Mark Snow" FLAGS DCP INDEX 00 41:23:53 INDEX 01 41:25:53 TRACK 13 AUDIO TITLE "The Bleed" PERFORMER "Mark Snow" FLAGS DCP INDEX 00 47:48:39 INDEX 01 47:52:39 TRACK 14 AUDIO TITLE "Hail Lauren" PERFORMER "Mark Snow" FLAGS DCP INDEX 00 51:21:38 INDEX 01 51:25:38 TRACK 15 AUDIO TITLE "Alignment" PERFORMER "Mark Snow" FLAGS DCP INDEX 00 53:33:14 INDEX 01 53:35:14 TRACK 16 AUDIO TITLE "Pugilistic Attitude" PERFORMER "Mark Snow" FLAGS DCP INDEX 00 56:52:17 INDEX 01 56:54:17 TRACK 17 AUDIO TITLE "All His Children" PERFORMER "Mark Snow" FLAGS DCP INDEX 00 58:49:26 INDEX 01 58:51:26 TRACK 18 AUDIO TITLE "The Ghost of Bletch" PERFORMER "Mark Snow" FLAGS DCP INDEX 00 65:19:57 INDEX 01 65:23:57 TRACK 19 AUDIO TITLE "The Razor's Edge" PERFORMER "Mark Snow" FLAGS DCP INDEX 00 68:17:25 INDEX 01 68:19:25 TRACK 20 AUDIO TITLE "A Unique Perspective" PERFORMER "Mark Snow" FLAGS DCP INDEX 00 73:06:15 INDEX 01 73:08:15
Продолжительность: 01:18:14

<div style="margin-left: 2em" class="post-ul">
<div style="margin-left: 2em" class="post-ul">5C12 - LUMINARY</div>
01. Stars [01:02]
02. Journey North [02:06]
03. Northern Lights [06:45]
04. Rescue of Ventoux [05:45]

<div style="margin-left: 2em" class="post-ul">6ABC19 - SEVEN AND ONE</div>
05. The Secret [04:04]
06. False Alarm [02:09]
07. The Light in the Water [08:14]

<div style="margin-left: 2em" class="post-ul">5C19 - ANAMNESIS</div>
08. The Sermon [03:58]
09. The Read [03:01]
10. M. Madgalene [02:19]
11. The Circle [02:46]
12. Divine Daughter [09:38]

<div style="margin-left: 2em" class="post-ul">6ABC07 - THROUGH A GLASS DARKLY</div>
13. Van Man [03:09]
14. The Trailer [02:53]
15. East... West [03:13]
16. St. Max Part 1 / Part 2 [07:29]

<div style="margin-left: 2em" class="post-ul">6ABC12 - THE SOUND OF SNOW</div>
17. Guilt [01:47]
18. Can't Let Go [06:40]

19. End Credits (Show) [00:37]
20. I Made This / 20th Century Fox Fanfare [00:08] (Music by Alfred Newman)</div>
Exact Audio Copy V1.0 beta 4 from 7. December 2014

EAC extraction logfile from 20. June 2015, 14:09

Mark Snow / Millennium: Volume Two - Disc 2

Used drive : TSSTcorpCDDVDW TS-L633C Adapter: 1 ID: 0

Read mode : SecureUtilize accurate stream : YesDefeat audio cache : YesMake use of C2 pointers : No

Read offset correction : 6Overread into Lead-In and Lead-Out : NoFill up missing offset samples with silence : YesDelete leading and trailing silent blocks : NoNull samples used in CRC calculations : YesUsed interface : Native Win32 interface for Win NT & 2000

Used output format : Internal WAV RoutinesSample format : 44.100 Hz; 16 Bit; Stereo

TOC of the extracted CD

Track | Start | Length | Start sector | End sector --------------------------------------------------------- 1 | 0:00.00 | 1:04.06 | 0 | 4805 2 | 1:04.06 | 2:08.07 | 4806 | 14412 3 | 3:12.13 | 6:47.36 | 14413 | 44973 4 | 9:59.49 | 5:34.48 | 44974 | 70071 5 | 15:34.22 | 4:06.14 | 70072 | 88535 6 | 19:40.36 | 2:21.09 | 88536 | 99119 7 | 22:01.45 | 8:17.64 | 99120 | 136458 8 | 30:19.34 | 3:59.60 | 136459 | 154443 9 | 34:19.19 | 3:02.73 | 154444 | 168166 10 | 37:22.17 | 2:20.59 | 168167 | 178725 11 | 39:43.01 | 2:48.51 | 178726 | 191376 12 | 42:31.52 | 9:41.56 | 191377 | 235007 13 | 52:13.33 | 3:11.19 | 235008 | 249351 14 | 55:24.52 | 2:54.63 | 249352 | 262464 15 | 58:19.40 | 3:15.14 | 262465 | 277103 16 | 61:34.54 | 7:33.34 | 277104 | 311112 17 | 69:08.13 | 1:49.66 | 311113 | 319353 18 | 70:58.04 | 6:41.70 | 319354 | 349498 19 | 77:39.74 | 0:36.55 | 349499 | 352253 20 | 78:16.54 | 0:08.63 | 352254 | 352916

Range status and errors

Selected range

Filename D:\Mark Snow - Millennium [by italia57]\2015 - Volume Two [LLLCD 1352]\Disc 2\Mark Snow - Millennium - Volume 2 - Disc 2.wav

Peak level 99.9 % Extraction speed 4.3 X Range quality 100.0 % Test CRC 62113060 Copy CRC 62113060 Copy OK

No errors occurred

AccurateRip summary

Track 1 not present in databaseTrack 2 not present in databaseTrack 3 not present in databaseTrack 4 not present in databaseTrack 5 not present in databaseTrack 6 not present in databaseTrack 7 not present in databaseTrack 8 not present in databaseTrack 9 not present in databaseTrack 10 not present in databaseTrack 11 not present in databaseTrack 12 not present in databaseTrack 13 not present in databaseTrack 14 not present in databaseTrack 15 not present in databaseTrack 16 not present in databaseTrack 17 not present in databaseTrack 18 not present in databaseTrack 19 not present in databaseTrack 20 not present in database

None of the tracks are present in the AccurateRip database

End of status report

---- CUETools DB Plugin V2.1.4

[CTDB TOCID: mH55UUp8BIZRjHMwDDldtmsNerQ-] foundSubmit result: mH55UUp8BIZRjHMwDDldtmsNerQ- has been confirmedTrack | CTDB Status 1 | (5/5) Accurately ripped 2 | (5/5) Accurately ripped 3 | (5/5) Accurately ripped 4 | (5/5) Accurately ripped 5 | (5/5) Accurately ripped 6 | (5/5) Accurately ripped 7 | (5/5) Accurately ripped 8 | (5/5) Accurately ripped 9 | (5/5) Accurately ripped 10 | (5/5) Accurately ripped 11 | (5/5) Accurately ripped 12 | (5/5) Accurately ripped 13 | (5/5) Accurately ripped 14 | (5/5) Accurately ripped 15 | (5/5) Accurately ripped 16 | (5/5) Accurately ripped 17 | (5/5) Accurately ripped 18 | (5/5) Accurately ripped 19 | (5/5) Accurately ripped 20 | (5/5) Accurately ripped

==== Log checksum 0DA2084DF4D8EEBBD43CCF579EC05369568FE5D3F9FFA250D6CAF7A87C1E204D ====
REM GENRE SoundtrackREM DATE 2015REM DISCID 0A126114REM COMMENT "ExactAudioCopy v1.0b4"PERFORMER "Mark Snow"TITLE "Millennium: Volume Two - Disc 2"FILE "Mark Snow - Millennium - Volume 2 - Disc 2.flac" WAVE TRACK 01 AUDIO TITLE "Stars" PERFORMER "Mark Snow" FLAGS DCP INDEX 01 00:00:00 TRACK 02 AUDIO TITLE "Journey North" PERFORMER "Mark Snow" FLAGS DCP INDEX 00 01:02:06 INDEX 01 01:04:06 TRACK 03 AUDIO TITLE "Northern Lights" PERFORMER "Mark Snow" FLAGS DCP INDEX 00 03:10:13 INDEX 01 03:12:13 TRACK 04 AUDIO TITLE "Rescue of Ventoux" PERFORMER "Mark Snow" FLAGS DCP INDEX 00 09:57:49 INDEX 01 09:59:49 TRACK 05 AUDIO TITLE "The Secret" PERFORMER "Mark Snow" FLAGS DCP INDEX 00 15:30:22 INDEX 01 15:34:22 TRACK 06 AUDIO TITLE "False Alarm" PERFORMER "Mark Snow" FLAGS DCP INDEX 00 19:38:36 INDEX 01 19:40:36 TRACK 07 AUDIO TITLE "The Light in the Water" PERFORMER "Mark Snow" FLAGS DCP INDEX 00 21:59:45 INDEX 01 22:01:45 TRACK 08 AUDIO TITLE "The Sermon" PERFORMER "Mark Snow" FLAGS DCP INDEX 00 30:15:34 INDEX 01 30:19:34 TRACK 09 AUDIO TITLE "The Read" PERFORMER "Mark Snow" FLAGS DCP INDEX 00 34:17:19 INDEX 01 34:19:19 TRACK 10 AUDIO TITLE "M. Madgalene" PERFORMER "Mark Snow" FLAGS DCP INDEX 00 37:20:17 INDEX 01 37:22:17 TRACK 11 AUDIO TITLE "The Circle" PERFORMER "Mark Snow" FLAGS DCP INDEX 00 39:41:01 INDEX 01 39:43:01 TRACK 12 AUDIO TITLE "Divine Daughter" PERFORMER "Mark Snow" FLAGS DCP INDEX 00 42:29:52 INDEX 01 42:31:52 TRACK 13 AUDIO TITLE "Van Man" PERFORMER "Mark Snow" FLAGS DCP INDEX 00 52:09:33 INDEX 01 52:13:33 TRACK 14 AUDIO TITLE "The Trailer" PERFORMER "Mark Snow" FLAGS DCP INDEX 00 55:22:52 INDEX 01 55:24:52 TRACK 15 AUDIO TITLE "East... West" PERFORMER "Mark Snow" FLAGS DCP INDEX 00 58:17:40 INDEX 01 58:19:40 TRACK 16 AUDIO TITLE "St. Max Part 1; Part 2" PERFORMER "Mark Snow" FLAGS DCP INDEX 00 61:32:54 INDEX 01 61:34:54 TRACK 17 AUDIO TITLE "Guilt" PERFORMER "Mark Snow" FLAGS DCP INDEX 00 69:04:13 INDEX 01 69:08:13 TRACK 18 AUDIO TITLE "Can't Let Go" PERFORMER "Mark Snow" FLAGS DCP INDEX 00 70:56:04 INDEX 01 70:58:04 TRACK 19 AUDIO TITLE "End Credits (Show)" PERFORMER "Mark Snow" FLAGS DCP INDEX 00 77:37:74 INDEX 01 77:39:74 TRACK 20 AUDIO TITLE "I Made This; 20th Century Fox Fanfare" PERFORMER "Mark Snow" FLAGS DCP INDEX 01 78:16:54


Трекер:  [ 20-Июн-2015 15:30 ]

  

Скачать .torrent

Размер .torrent файла 33 KB


Размер: 1.42 GB
Хэш (hash) релиза: d3724f1716a56e3f9390fd010f8b4f8394f5c5c5

Еще никто не оставлял запись к записи скачать торрент Тысячелетие Millennium: Volumes One & Two . Будь первым!

!Обратная связь