Скачать через торрент музыку Доктор Кто: Сезон 8 Doctor Who: Series 8 бесплатно без регистрации torrent

Если у вас наблюдаются проблемы со скриншотами, переходом по ссылками, скачиванием торрентов - проблемы в блокировщике рекламы AdBlock. #хорошегоДня!


Статистика раздачи
Размер:  1.11 GB   |    Зарегистрирован:  2 года 3 месяца   |    .torrent скачан:  30 раз   |   
Раздают:  1  
   
Загрузка...
 
Автор Сообщение

Galfimbul

avatar Galfimbul


Доктор Кто: Сезон 8 / Doctor Who: Series 8

Жанр: Score
Композитор: Murray Gold
Год выпуска диска: 2015
Страна-производитель диска: UK
Издатель (лейбл): Silva Screen
Номер по каталогу: SILCD1460
Аудиокодек: FLAC (*.flac)
Тип рипа: tracks+.cue
Битрейт аудио: lossless
Продолжительность: 2:59:52
Источник: собственный рип
Наличие сканов в содержимом раздачи: да
Треклист:
[spoiler="Disc 1 [1:11:12]"]01. Doctor Who Theme (Series 8) (1:16)
02. A Good Man? (Twelve's Theme) (7:34)

Deep Breath
03. Something It Ate (2:39)
04. Concussed (3:28)
05. It's Stll Him (1:59)
06. Pudding Brains (5:27)
07. Breath (4:45)
08. Hello Hello (3:16)
09. A Drink First (2:01)
10. Missy's Theme (1:34)

Into The Dalek
11. Aristotle, We've Been Hit (0:59)
12. We're Still Going To Kill You (3:56)
13. Tell Me, Am I A Good Man? (4:03)
14. What Difference A Good Dalek? (3:32)
15. The Truth About the Daleks (2:07)

Robot Of Sherwood
16. Old Fashioned Hero (2:16)
17. This Is My Spoon (2:07)
18. Robert, Earl of Loxley (1:59)
19. The Legend of Robin Hood (2:17)
20. Robin of Sherwood (3:14)
21. The Golden Arrow (1:37)

Listen
22. Listen (2:24)
23. Rupert Pink (3:56)
24. Fear (2:47)
Exact Audio Copy V1.0 beta 6 from 9. April 2015

EAC extraction logfile from 28. May 2015, 21:21

Murray Gold / Doctor Who: Series 8 [Disk 1]

Used drive : PIONEER BD-RW BDR-S09 Adapter: 1 ID: 0

Read mode : SecureUtilize accurate stream : YesDefeat audio cache : YesMake use of C2 pointers : No

Read offset correction : 667Overread into Lead-In and Lead-Out : NoFill up missing offset samples with silence : YesDelete leading and trailing silent blocks : NoNull samples used in CRC calculations : YesUsed interface : Native Win32 interface for Win NT & 2000Gap handling : Appended to previous track

Used output format : User Defined EncoderSelected bitrate : 128 kBit/sQuality : HighAdd ID3 tag : NoCommand line compressor : C:\Program Files (x86)\Exact Audio Copy\FLAC\FLAC.EXEAdditional command line options : -V -8 -T "Genre=%genre%" -T "Artist=%artist%" -T "Title=%title%" -T "Album=%albumtitle%" -T "Date=%year%" -T "Tracknumber=%tracknr%" -T "Comment=%comment%" %source%

TOC of the extracted CD

Track | Start | Length | Start sector | End sector --------------------------------------------------------- 1 | 0:00.00 | 1:16.37 | 0 | 5736 2 | 1:16.37 | 7:33.45 | 5737 | 39756 3 | 8:50.07 | 2:39.29 | 39757 | 51710 4 | 11:29.36 | 3:27.55 | 51711 | 67290 5 | 14:57.16 | 1:58.69 | 67291 | 76209 6 | 16:56.10 | 5:26.64 | 76210 | 100723 7 | 22:22.74 | 4:44.59 | 100724 | 122082 8 | 27:07.58 | 3:15.69 | 122083 | 136776 9 | 30:23.52 | 2:01.11 | 136777 | 145862 10 | 32:24.63 | 1:33.43 | 145863 | 152880 11 | 33:58.31 | 0:59.14 | 152881 | 157319 12 | 34:57.45 | 3:55.46 | 157320 | 174990 13 | 38:53.16 | 4:02.68 | 174991 | 193208 14 | 42:56.09 | 3:31.39 | 193209 | 209072 15 | 46:27.48 | 2:07.35 | 209073 | 218632 16 | 48:35.08 | 2:15.56 | 218633 | 228813 17 | 50:50.64 | 2:06.50 | 228814 | 238313 18 | 52:57.39 | 1:59.19 | 238314 | 247257 19 | 54:56.58 | 2:17.35 | 247258 | 257567 20 | 57:14.18 | 3:14.27 | 257568 | 272144 21 | 60:28.45 | 1:36.52 | 272145 | 279396 22 | 62:05.22 | 2:24.17 | 279397 | 290213 23 | 64:29.39 | 3:56.37 | 290214 | 307950 24 | 68:26.01 | 2:46.57 | 307951 | 320457

Track 1

Filename C:\Users\Mace Window\Desktop\Murray Gold - Doctor Who [Series 8]\Disk 1\01. Doctor Who Theme (Series 8).wav

Pre-gap length 0:00:02.00

Peak level 92.4 % Extraction speed 2.2 X Track quality 100.0 % Test CRC 3FEFBA31 Copy CRC 3FEFBA31 Track not present in AccurateRip database Copy OK

Track 2

Filename C:\Users\Mace Window\Desktop\Murray Gold - Doctor Who [Series 8]\Disk 1\02. A Good Man (Twelve's Theme).wav

Peak level 96.6 % Extraction speed 3.3 X Track quality 100.0 % Test CRC DE5EF6EB Copy CRC DE5EF6EB Track not present in AccurateRip database Copy OK

Track 3

Filename C:\Users\Mace Window\Desktop\Murray Gold - Doctor Who [Series 8]\Disk 1\03. Something It Ate.wav

Peak level 77.4 % Extraction speed 3.2 X Track quality 100.0 % Test CRC DE64A30E Copy CRC DE64A30E Track not present in AccurateRip database Copy OK

Track 4

Filename C:\Users\Mace Window\Desktop\Murray Gold - Doctor Who [Series 8]\Disk 1\04. Concussed.wav

Peak level 96.6 % Extraction speed 3.6 X Track quality 100.0 % Test CRC 4437804D Copy CRC 4437804D Track not present in AccurateRip database Copy OK

Track 5

Filename C:\Users\Mace Window\Desktop\Murray Gold - Doctor Who [Series 8]\Disk 1\05. It's Stll Him.wav

Peak level 62.5 % Extraction speed 3.3 X Track quality 100.0 % Test CRC E9933A39 Copy CRC E9933A39 Track not present in AccurateRip database Copy OK

Track 6

Filename C:\Users\Mace Window\Desktop\Murray Gold - Doctor Who [Series 8]\Disk 1\06. Pudding Brains.wav

Peak level 96.6 % Extraction speed 4.1 X Track quality 100.0 % Test CRC 8F43A1FE Copy CRC 8F43A1FE Track not present in AccurateRip database Copy OK

Track 7

Filename C:\Users\Mace Window\Desktop\Murray Gold - Doctor Who [Series 8]\Disk 1\07. Breath.wav

Peak level 85.8 % Extraction speed 4.3 X Track quality 100.0 % Test CRC AB9429F3 Copy CRC AB9429F3 Track not present in AccurateRip database Copy OK

Track 8

Filename C:\Users\Mace Window\Desktop\Murray Gold - Doctor Who [Series 8]\Disk 1\08. Hello Hello.wav

Peak level 96.6 % Extraction speed 4.3 X Track quality 100.0 % Test CRC A7C12C0B Copy CRC A7C12C0B Track not present in AccurateRip database Copy OK

Track 9

Filename C:\Users\Mace Window\Desktop\Murray Gold - Doctor Who [Series 8]\Disk 1\09. A Drink First.wav

Peak level 96.6 % Extraction speed 3.2 X Track quality 99.9 % Test CRC B7A6BB87 Copy CRC B7A6BB87 Track not present in AccurateRip database Copy OK

Track 10

Filename C:\Users\Mace Window\Desktop\Murray Gold - Doctor Who [Series 8]\Disk 1\10. Missy's Theme.wav

Peak level 96.6 % Extraction speed 2.9 X Track quality 99.8 % Test CRC F321C4D2 Copy CRC F321C4D2 Track not present in AccurateRip database Copy OK

Track 11

Filename C:\Users\Mace Window\Desktop\Murray Gold - Doctor Who [Series 8]\Disk 1\11. Aristotle, We've Been Hit.wav

Peak level 96.6 % Extraction speed 3.4 X Track quality 100.0 % Test CRC E2C2674B Copy CRC E2C2674B Track not present in AccurateRip database Copy OK

Track 12

Filename C:\Users\Mace Window\Desktop\Murray Gold - Doctor Who [Series 8]\Disk 1\12. We're Still Going To Kill You.wav

Peak level 83.3 % Extraction speed 4.8 X Track quality 100.0 % Test CRC B09D9366 Copy CRC B09D9366 Track not present in AccurateRip database Copy OK

Track 13

Filename C:\Users\Mace Window\Desktop\Murray Gold - Doctor Who [Series 8]\Disk 1\13. Tell Me, Am I A Good Man.wav

Peak level 91.8 % Extraction speed 5.0 X Track quality 100.0 % Test CRC 8CF26D9A Copy CRC 8CF26D9A Track not present in AccurateRip database Copy OK

Track 14

Filename C:\Users\Mace Window\Desktop\Murray Gold - Doctor Who [Series 8]\Disk 1\14. What Difference A Good Dalek.wav

Peak level 96.6 % Extraction speed 5.0 X Track quality 100.0 % Test CRC 4FE0E1B5 Copy CRC 4FE0E1B5 Track not present in AccurateRip database Copy OK

Track 15

Filename C:\Users\Mace Window\Desktop\Murray Gold - Doctor Who [Series 8]\Disk 1\15. The Truth About the Daleks.wav

Peak level 96.6 % Extraction speed 3.7 X Track quality 99.9 % Test CRC 4BD67CE8 Copy CRC 4BD67CE8 Track not present in AccurateRip database Copy OK

Track 16

Filename C:\Users\Mace Window\Desktop\Murray Gold - Doctor Who [Series 8]\Disk 1\16. Old Fashioned Hero.wav

Peak level 96.4 % Extraction speed 3.9 X Track quality 99.9 % Test CRC 47FD9DB8 Copy CRC 47FD9DB8 Track not present in AccurateRip database Copy OK

Track 17

Filename C:\Users\Mace Window\Desktop\Murray Gold - Doctor Who [Series 8]\Disk 1\17. This Is My Spoon.wav

Peak level 96.6 % Extraction speed 4.7 X Track quality 100.0 % Test CRC F057C1B4 Copy CRC F057C1B4 Track not present in AccurateRip database Copy OK

Track 18

Filename C:\Users\Mace Window\Desktop\Murray Gold - Doctor Who [Series 8]\Disk 1\18. Robert, Earl of Loxley.wav

Peak level 68.6 % Extraction speed 4.7 X Track quality 100.0 % Test CRC 06D87ED3 Copy CRC 06D87ED3 Track not present in AccurateRip database Copy OK

Track 19

Filename C:\Users\Mace Window\Desktop\Murray Gold - Doctor Who [Series 8]\Disk 1\19. The Legend of Robin Hood.wav

Peak level 96.6 % Extraction speed 4.2 X Track quality 99.9 % Test CRC 33697769 Copy CRC 33697769 Track not present in AccurateRip database Copy OK

Track 20

Filename C:\Users\Mace Window\Desktop\Murray Gold - Doctor Who [Series 8]\Disk 1\20. Robin of Sherwood.wav

Peak level 96.6 % Extraction speed 5.4 X Track quality 100.0 % Test CRC EF4CD2E8 Copy CRC EF4CD2E8 Track not present in AccurateRip database Copy OK

Track 21

Filename C:\Users\Mace Window\Desktop\Murray Gold - Doctor Who [Series 8]\Disk 1\21. The Golden Arrow.wav

Peak level 96.6 % Extraction speed 4.7 X Track quality 100.0 % Test CRC 070D09AC Copy CRC 070D09AC Track not present in AccurateRip database Copy OK

Track 22

Filename C:\Users\Mace Window\Desktop\Murray Gold - Doctor Who [Series 8]\Disk 1\22. Listen.wav

Peak level 96.5 % Extraction speed 5.3 X Track quality 100.0 % Test CRC BD28ACA9 Copy CRC BD28ACA9 Track not present in AccurateRip database Copy OK

Track 23

Filename C:\Users\Mace Window\Desktop\Murray Gold - Doctor Who [Series 8]\Disk 1\23. Rupert Pink.wav

Peak level 96.4 % Extraction speed 5.8 X Track quality 100.0 % Test CRC 6A033D53 Copy CRC 6A033D53 Track not present in AccurateRip database Copy OK

Track 24

Filename C:\Users\Mace Window\Desktop\Murray Gold - Doctor Who [Series 8]\Disk 1\24. Fear.wav

Peak level 46.2 % Extraction speed 5.5 X Track quality 100.0 % Test CRC B7C8EE54 Copy CRC B7C8EE54 Track not present in AccurateRip database Copy OK

None of the tracks are present in the AccurateRip database

No errors occurred

End of status report

---- CUETools DB Plugin V2.1.6

[CTDB TOCID: YrIWRl472.NSlaEHE_BJRGGybyc-] foundSubmit result: already submittedTrack | CTDB Status 1 | (11/11) Accurately ripped 2 | (11/11) Accurately ripped 3 | (11/11) Accurately ripped 4 | (11/11) Accurately ripped 5 | (11/11) Accurately ripped 6 | (11/11) Accurately ripped 7 | (11/11) Accurately ripped 8 | (11/11) Accurately ripped 9 | (11/11) Accurately ripped 10 | (11/11) Accurately ripped 11 | (11/11) Accurately ripped 12 | (11/11) Accurately ripped 13 | (11/11) Accurately ripped 14 | (11/11) Accurately ripped 15 | (11/11) Accurately ripped 16 | (11/11) Accurately ripped 17 | (11/11) Accurately ripped 18 | (11/11) Accurately ripped 19 | (11/11) Accurately ripped 20 | (11/11) Accurately ripped 21 | (11/11) Accurately ripped 22 | (11/11) Accurately ripped 23 | (11/11) Accurately ripped 24 | (11/11) Accurately ripped

==== Log checksum 7A83421236A759F82F48878AA18A4C0E48E0B1F34175EA77DC49146B27C7E919 ====
REM GENRE "TV Soundtrack"REM DATE 2015REM DISCID 7F10B018REM COMMENT "ExactAudioCopy v1.0b6"PERFORMER "Murray Gold"TITLE "Doctor Who: Series 8 [Disc 1]"FILE "01. Doctor Who Theme (Series 8).wav" WAVE TRACK 01 AUDIO TITLE "Doctor Who Theme (Series 8)" PERFORMER "Murray Gold" ISRC GBAJC1500071 FLAGS DCP INDEX 01 00:00:00FILE "02. A Good Man (Twelve's Theme).wav" WAVE TRACK 02 AUDIO TITLE "A Good Man? (Twelve's Theme)" PERFORMER "Murray Gold" ISRC GBAJC1500072 FLAGS DCP INDEX 01 00:00:00FILE "03. Something It Ate.wav" WAVE TRACK 03 AUDIO TITLE "Something It Ate" PERFORMER "Murray Gold" ISRC GBAJC1500073 FLAGS DCP INDEX 01 00:00:00FILE "04. Concussed.wav" WAVE TRACK 04 AUDIO TITLE "Concussed" PERFORMER "Murray Gold" ISRC GBAJC1500074 FLAGS DCP INDEX 01 00:00:00FILE "05. It's Stll Him.wav" WAVE TRACK 05 AUDIO TITLE "It's Stll Him" PERFORMER "Murray Gold" ISRC GBAJC1500075 FLAGS DCP INDEX 01 00:00:00FILE "06. Pudding Brains.wav" WAVE TRACK 06 AUDIO TITLE "Pudding Brains" PERFORMER "Murray Gold" ISRC GBAJC1500076 FLAGS DCP INDEX 01 00:00:00FILE "07. Breath.wav" WAVE TRACK 07 AUDIO TITLE "Breath" PERFORMER "Murray Gold" ISRC GBAJC1500077 FLAGS DCP INDEX 01 00:00:00FILE "08. Hello Hello.wav" WAVE TRACK 08 AUDIO TITLE "Hello Hello" PERFORMER "Murray Gold" ISRC GBAJC1500078 FLAGS DCP INDEX 01 00:00:00FILE "09. A Drink First.wav" WAVE TRACK 09 AUDIO TITLE "A Drink First" PERFORMER "Murray Gold" ISRC GBAJC1500079 FLAGS DCP INDEX 01 00:00:00FILE "10. Missy's Theme.wav" WAVE TRACK 10 AUDIO TITLE "Missy's Theme" PERFORMER "Murray Gold" ISRC GBAJC1500080 FLAGS DCP INDEX 01 00:00:00FILE "11. Aristotle, We've Been Hit.wav" WAVE TRACK 11 AUDIO TITLE "Aristotle, We've Been Hit" PERFORMER "Murray Gold" ISRC GBAJC1500081 FLAGS DCP INDEX 01 00:00:00FILE "12. We're Still Going To Kill You.wav" WAVE TRACK 12 AUDIO TITLE "We're Still Going To Kill You" PERFORMER "Murray Gold" ISRC GBAJC1500082 FLAGS DCP INDEX 01 00:00:00FILE "13. Tell Me, Am I A Good Man.wav" WAVE TRACK 13 AUDIO TITLE "Tell Me, Am I A Good Man?" PERFORMER "Murray Gold" ISRC GBAJC1500083 FLAGS DCP INDEX 01 00:00:00FILE "14. What Difference A Good Dalek.wav" WAVE TRACK 14 AUDIO TITLE "What Difference A Good Dalek?" PERFORMER "Murray Gold" ISRC GBAJC1500084 FLAGS DCP INDEX 01 00:00:00FILE "15. The Truth About the Daleks.wav" WAVE TRACK 15 AUDIO TITLE "The Truth About the Daleks" PERFORMER "Murray Gold" ISRC GBAJC1500085 FLAGS DCP INDEX 01 00:00:00FILE "16. Old Fashioned Hero.wav" WAVE TRACK 16 AUDIO TITLE "Old Fashioned Hero" PERFORMER "Murray Gold" ISRC GBAJC1500086 FLAGS DCP INDEX 01 00:00:00FILE "17. This Is My Spoon.wav" WAVE TRACK 17 AUDIO TITLE "This Is My Spoon" PERFORMER "Murray Gold" FLAGS DCP INDEX 01 00:00:00FILE "18. Robert, Earl of Loxley.wav" WAVE TRACK 18 AUDIO TITLE "Robert, Earl of Loxley" PERFORMER "Murray Gold" FLAGS DCP INDEX 01 00:00:00FILE "19. The Legend of Robin Hood.wav" WAVE TRACK 19 AUDIO TITLE "The Legend of Robin Hood" PERFORMER "Murray Gold" ISRC GBAJC1500089 FLAGS DCP INDEX 01 00:00:00FILE "20. Robin of Sherwood.wav" WAVE TRACK 20 AUDIO TITLE "Robin of Sherwood" PERFORMER "Murray Gold" ISRC GBAJC1500090 FLAGS DCP INDEX 01 00:00:00FILE "21. The Golden Arrow.wav" WAVE TRACK 21 AUDIO TITLE "The Golden Arrow" PERFORMER "Murray Gold" ISRC GBAJC1500091 FLAGS DCP INDEX 01 00:00:00FILE "22. Listen.wav" WAVE TRACK 22 AUDIO TITLE "Listen" PERFORMER "Murray Gold" ISRC GBAJC1500092 FLAGS DCP INDEX 01 00:00:00FILE "23. Rupert Pink.wav" WAVE TRACK 23 AUDIO TITLE "Rupert Pink" PERFORMER "Murray Gold" ISRC GBAJC1500093 FLAGS DCP INDEX 01 00:00:00FILE "24. Fear.wav" WAVE TRACK 24 AUDIO TITLE "Fear" PERFORMER "Murray Gold" ISRC GBAJC1500094 FLAGS DCP INDEX 01 00:00:00
[/spoiler]
[spoiler="Disc 2 [1:08:07]"]Time Heist
01. The Architect (1:27)
02. Rob The Bank (0:58)
03. Account Closed (2:08)
04. Open Up (2:07)

The Caretaker
05. The Caretaker (5:16)

Kill The Moon
06. Are You Going To Shoot Me? (1:56)
07. When I Say Run (1:46)
08. That Is The Moon (2:01)

Mummy On The Orient Express
09. Start The Clock (1:33)
10. There's That Smile (2:23)
11. The Sarcophagus Opens (3:58)
12. The Artefact (2:05)
13. Study Our Own Demise (2:12)

Flatline
14. Not Knowing (3:01)
15. Siege Mode (1:26)

In The Forest Of The Night
16. In The Woods (2:21)
17. We Weren't Asleep That Long (1:03)
18. Forgetting (1:46)

Dark Water/Death In Heaven
19. The Song Of Danny And Clara (2:40)
20. Throw Away The Key (4:15)
21. Browsing (2:22)
22. They Walk Among Us (2:20)
23. There Is No Clara Oswald (1:00)
24. Missy And Her Boys (1:17)
25. A Good Man, An Incredible Liar (1:35)
26. Freefall (1:40)
27. I Need To Know (4:59)
28. Missy's Theme [Extended] (2:06)
29. Missy's Gift (2:03)
30. (The Majestic Tale Of) An Idiot With A Box (2:22)
Exact Audio Copy V1.0 beta 6 from 9. April 2015

EAC extraction logfile from 28. May 2015, 20:17

Murray Gold / Doctor Who: Series 8 [Disk 2]

Used drive : PIONEER BD-RW BDR-S09 Adapter: 1 ID: 0

Read mode : SecureUtilize accurate stream : YesDefeat audio cache : YesMake use of C2 pointers : No

Read offset correction : 667Overread into Lead-In and Lead-Out : NoFill up missing offset samples with silence : YesDelete leading and trailing silent blocks : NoNull samples used in CRC calculations : YesUsed interface : Native Win32 interface for Win NT & 2000Gap handling : Appended to previous track

Used output format : User Defined EncoderSelected bitrate : 128 kBit/sQuality : HighAdd ID3 tag : NoCommand line compressor : C:\Program Files (x86)\Exact Audio Copy\FLAC\FLAC.EXEAdditional command line options : -V -8 -T "Genre=%genre%" -T "Artist=%artist%" -T "Title=%title%" -T "Album=%albumtitle%" -T "Date=%year%" -T "Tracknumber=%tracknr%" -T "Comment=%comment%" %source%

TOC of the extracted CD

Track | Start | Length | Start sector | End sector --------------------------------------------------------- 1 | 0:00.00 | 1:27.07 | 0 | 6531 2 | 1:27.07 | 0:57.73 | 6532 | 10879 3 | 2:25.05 | 2:08.36 | 10880 | 20515 4 | 4:33.41 | 2:06.62 | 20516 | 30027 5 | 6:40.28 | 5:15.44 | 30028 | 53696 6 | 11:55.72 | 1:56.35 | 53697 | 62431 7 | 13:52.32 | 1:45.50 | 62432 | 70356 8 | 15:38.07 | 2:01.06 | 70357 | 79437 9 | 17:39.13 | 1:32.49 | 79438 | 86386 10 | 19:11.62 | 2:23.30 | 86387 | 97141 11 | 21:35.17 | 3:58.33 | 97142 | 115024 12 | 25:33.50 | 2:04.67 | 115025 | 124391 13 | 27:38.42 | 2:12.00 | 124392 | 134291 14 | 29:50.42 | 3:00.42 | 134292 | 147833 15 | 32:51.09 | 1:26.22 | 147834 | 154305 16 | 34:17.31 | 2:21.07 | 154306 | 164887 17 | 36:38.38 | 1:02.55 | 164888 | 169592 18 | 37:41.18 | 1:45.45 | 169593 | 177512 19 | 39:26.63 | 2:40.22 | 177513 | 189534 20 | 42:07.10 | 4:14.66 | 189535 | 208650 21 | 46:22.01 | 2:22.21 | 208651 | 219321 22 | 48:44.22 | 2:20.06 | 219322 | 229827 23 | 51:04.28 | 0:59.48 | 229828 | 234300 24 | 52:04.01 | 1:17.33 | 234301 | 240108 25 | 53:21.34 | 1:35.30 | 240109 | 247263 26 | 54:56.64 | 1:40.22 | 247264 | 254785 27 | 56:37.11 | 4:59.30 | 254786 | 277240 28 | 61:36.41 | 2:05.52 | 277241 | 286667 29 | 63:42.18 | 2:03.18 | 286668 | 295910 30 | 65:45.36 | 2:21.64 | 295911 | 306549

Track 1

Filename C:\Users\Mace Window\Desktop\Murray Gold - Doctor Who [Series 8]\Disk 2\01. The Architect.wav

Pre-gap length 0:00:02.00

Peak level 96.6 % Extraction speed 2.2 X Track quality 100.0 % Test CRC 9FA51E1F Copy CRC 9FA51E1F Track not present in AccurateRip database Copy OK

Track 2

Filename C:\Users\Mace Window\Desktop\Murray Gold - Doctor Who [Series 8]\Disk 2\02. Rob The Bank.wav

Peak level 96.6 % Extraction speed 2.1 X Track quality 100.0 % Test CRC 88B825EC Copy CRC 88B825EC Track not present in AccurateRip database Copy OK

Track 3

Filename C:\Users\Mace Window\Desktop\Murray Gold - Doctor Who [Series 8]\Disk 2\03. Account Closed.wav

Peak level 96.6 % Extraction speed 2.2 X Track quality 99.9 % Test CRC 12056CF6 Copy CRC 12056CF6 Track not present in AccurateRip database Copy OK

Track 4

Filename C:\Users\Mace Window\Desktop\Murray Gold - Doctor Who [Series 8]\Disk 2\04. Open Up.wav

Peak level 96.4 % Extraction speed 2.3 X Track quality 99.9 % Test CRC BC68BD64 Copy CRC BC68BD64 Track not present in AccurateRip database Copy OK

Track 5

Filename C:\Users\Mace Window\Desktop\Murray Gold - Doctor Who [Series 8]\Disk 2\05. The Caretaker.wav

Peak level 96.5 % Extraction speed 3.5 X Track quality 100.0 % Test CRC DE953631 Copy CRC DE953631 Track not present in AccurateRip database Copy OK

Track 6

Filename C:\Users\Mace Window\Desktop\Murray Gold - Doctor Who [Series 8]\Disk 2\06. Are You Going To Shoot Me.wav

Peak level 67.9 % Extraction speed 3.2 X Track quality 100.0 % Test CRC 93103EE1 Copy CRC 93103EE1 Track not present in AccurateRip database Copy OK

Track 7

Filename C:\Users\Mace Window\Desktop\Murray Gold - Doctor Who [Series 8]\Disk 2\07. When I Say Run.wav

Peak level 96.6 % Extraction speed 3.2 X Track quality 100.0 % Test CRC 35DAF6A4 Copy CRC 35DAF6A4 Track not present in AccurateRip database Copy OK

Track 8

Filename C:\Users\Mace Window\Desktop\Murray Gold - Doctor Who [Series 8]\Disk 2\08. That Is The Moon.wav

Peak level 88.5 % Extraction speed 3.4 X Track quality 100.0 % Test CRC 0F1ABA69 Copy CRC 0F1ABA69 Track not present in AccurateRip database Copy OK

Track 9

Filename C:\Users\Mace Window\Desktop\Murray Gold - Doctor Who [Series 8]\Disk 2\09. Start The Clock.wav

Peak level 96.6 % Extraction speed 2.5 X Track quality 99.8 % Test CRC 89298C17 Copy CRC 89298C17 Track not present in AccurateRip database Copy OK

Track 10

Filename C:\Users\Mace Window\Desktop\Murray Gold - Doctor Who [Series 8]\Disk 2\10. There's That Smile.wav

Peak level 82.4 % Extraction speed 3.1 X Track quality 99.9 % Test CRC 098684D5 Copy CRC 098684D5 Track not present in AccurateRip database Copy OK

Track 11

Filename C:\Users\Mace Window\Desktop\Murray Gold - Doctor Who [Series 8]\Disk 2\11. The Sarcophagus Opens.wav

Peak level 96.6 % Extraction speed 4.2 X Track quality 100.0 % Test CRC 59DA62DE Copy CRC 59DA62DE Track not present in AccurateRip database Copy OK

Track 12

Filename C:\Users\Mace Window\Desktop\Murray Gold - Doctor Who [Series 8]\Disk 2\12. The Artefact.wav

Peak level 94.2 % Extraction speed 3.9 X Track quality 100.0 % Test CRC 49F94C5B Copy CRC 49F94C5B Track not present in AccurateRip database Copy OK

Track 13

Filename C:\Users\Mace Window\Desktop\Murray Gold - Doctor Who [Series 8]\Disk 2\13. Study Our Own Demise.wav

Peak level 85.5 % Extraction speed 4.0 X Track quality 100.0 % Test CRC F0872C79 Copy CRC F0872C79 Track not present in AccurateRip database Copy OK

Track 14

Filename C:\Users\Mace Window\Desktop\Murray Gold - Doctor Who [Series 8]\Disk 2\14. Not Knowing.wav

Peak level 96.6 % Extraction speed 3.7 X Track quality 99.9 % Test CRC 0931500C Copy CRC 0931500C Track not present in AccurateRip database Copy OK

Track 15

Filename C:\Users\Mace Window\Desktop\Murray Gold - Doctor Who [Series 8]\Disk 2\15. Siege Mode.wav

Peak level 96.6 % Extraction speed 2.9 X Track quality 99.8 % Test CRC 8ECD2E2E Copy CRC 8ECD2E2E Track not present in AccurateRip database Copy OK

Track 16

Filename C:\Users\Mace Window\Desktop\Murray Gold - Doctor Who [Series 8]\Disk 2\16. In The Woods.wav

Peak level 96.6 % Extraction speed 3.6 X Track quality 99.9 % Test CRC A6F474F0 Copy CRC A6F474F0 Track not present in AccurateRip database Copy OK

Track 17

Filename C:\Users\Mace Window\Desktop\Murray Gold - Doctor Who [Series 8]\Disk 2\17. We Weren't Asleep That Long.wav

Peak level 96.6 % Extraction speed 2.5 X Track quality 99.8 % Test CRC 7E9DD66E Copy CRC 7E9DD66E Track not present in AccurateRip database Copy OK

Track 18

Filename C:\Users\Mace Window\Desktop\Murray Gold - Doctor Who [Series 8]\Disk 2\18. Forgetting.wav

Peak level 96.6 % Extraction speed 3.3 X Track quality 99.8 % Test CRC FEFE94A2 Copy CRC FEFE94A2 Track not present in AccurateRip database Copy OK

Track 19

Filename C:\Users\Mace Window\Desktop\Murray Gold - Doctor Who [Series 8]\Disk 2\19. The Song Of Danny And Clara.wav

Peak level 91.2 % Extraction speed 4.6 X Track quality 100.0 % Test CRC 1BAE09DB Copy CRC 1BAE09DB Track not present in AccurateRip database Copy OK

Track 20

Filename C:\Users\Mace Window\Desktop\Murray Gold - Doctor Who [Series 8]\Disk 2\20. Throw Away The Key.wav

Peak level 96.6 % Extraction speed 5.1 X Track quality 100.0 % Test CRC E886D9A4 Copy CRC E886D9A4 Track not present in AccurateRip database Copy OK

Track 21

Filename C:\Users\Mace Window\Desktop\Murray Gold - Doctor Who [Series 8]\Disk 2\21. Browsing.wav

Peak level 96.6 % Extraction speed 4.8 X Track quality 100.0 % Test CRC 19012667 Copy CRC 19012667 Track not present in AccurateRip database Copy OK

Track 22

Filename C:\Users\Mace Window\Desktop\Murray Gold - Doctor Who [Series 8]\Disk 2\22. They Walk Among Us.wav

Peak level 94.5 % Extraction speed 3.9 X Track quality 99.9 % Test CRC 69DEA063 Copy CRC 69DEA063 Track not present in AccurateRip database Copy OK

Track 23

Filename C:\Users\Mace Window\Desktop\Murray Gold - Doctor Who [Series 8]\Disk 2\23. There Is No Clara Oswald.wav

Peak level 95.8 % Extraction speed 3.8 X Track quality 100.0 % Test CRC B5487704 Copy CRC B5487704 Track not present in AccurateRip database Copy OK

Track 24

Filename C:\Users\Mace Window\Desktop\Murray Gold - Doctor Who [Series 8]\Disk 2\24. Missy And Her Boys.wav

Peak level 96.2 % Extraction speed 4.3 X Track quality 100.0 % Test CRC FA719730 Copy CRC FA719730 Track not present in AccurateRip database Copy OK

Track 25

Filename C:\Users\Mace Window\Desktop\Murray Gold - Doctor Who [Series 8]\Disk 2\25. A Good Man, An Incredible Liar.wav

Peak level 96.6 % Extraction speed 4.5 X Track quality 100.0 % Test CRC 095DA4E2 Copy CRC 095DA4E2 Track not present in AccurateRip database Copy OK

Track 26

Filename C:\Users\Mace Window\Desktop\Murray Gold - Doctor Who [Series 8]\Disk 2\26. Freefall.wav

Peak level 96.6 % Extraction speed 4.5 X Track quality 100.0 % Test CRC 3001AC2E Copy CRC 3001AC2E Track not present in AccurateRip database Copy OK

Track 27

Filename C:\Users\Mace Window\Desktop\Murray Gold - Doctor Who [Series 8]\Disk 2\27. I Need To Know.wav

Peak level 96.6 % Extraction speed 5.7 X Track quality 100.0 % Test CRC 07298FA8 Copy CRC 07298FA8 Track not present in AccurateRip database Copy OK

Track 28

Filename C:\Users\Mace Window\Desktop\Murray Gold - Doctor Who [Series 8]\Disk 2\28. Missy's Theme [Extended].wav

Peak level 96.6 % Extraction speed 5.1 X Track quality 100.0 % Test CRC 41F7B47A Copy CRC 41F7B47A Track not present in AccurateRip database Copy OK

Track 29

Filename C:\Users\Mace Window\Desktop\Murray Gold - Doctor Who [Series 8]\Disk 2\29. Missy's Gift.wav

Peak level 96.6 % Extraction speed 5.2 X Track quality 100.0 % Test CRC 26EFBA09 Copy CRC 26EFBA09 Track not present in AccurateRip database Copy OK

Track 30

Filename C:\Users\Mace Window\Desktop\Murray Gold - Doctor Who [Series 8]\Disk 2\30. (The Majestic Tale Of) An Idiot With A Box.wav

Peak level 96.6 % Extraction speed 5.4 X Track quality 100.0 % Test CRC 778356D1 Copy CRC 778356D1 Track not present in AccurateRip database Copy OK

None of the tracks are present in the AccurateRip database

No errors occurred

End of status report

---- CUETools DB Plugin V2.1.6

[CTDB TOCID: wBuZMLd_IVeWYXiGZT0_6Tvxkqk-] foundSubmit result: wBuZMLd_IVeWYXiGZT0_6Tvxkqk- has been confirmedTrack | CTDB Status 1 | (10/10) Accurately ripped 2 | (10/10) Accurately ripped 3 | (10/10) Accurately ripped 4 | (10/10) Accurately ripped 5 | (10/10) Accurately ripped 6 | (10/10) Accurately ripped 7 | (10/10) Accurately ripped 8 | (10/10) Accurately ripped 9 | (10/10) Accurately ripped 10 | (10/10) Accurately ripped 11 | (10/10) Accurately ripped 12 | (10/10) Accurately ripped 13 | (10/10) Accurately ripped 14 | (10/10) Accurately ripped 15 | (10/10) Accurately ripped 16 | (10/10) Accurately ripped 17 | (10/10) Accurately ripped 18 | (10/10) Accurately ripped 19 | (10/10) Accurately ripped 20 | (10/10) Accurately ripped 21 | (10/10) Accurately ripped 22 | (10/10) Accurately ripped 23 | (10/10) Accurately ripped 24 | (10/10) Accurately ripped 25 | (10/10) Accurately ripped 26 | (10/10) Accurately ripped 27 | (10/10) Accurately ripped 28 | (10/10) Accurately ripped 29 | (10/10) Accurately ripped 30 | (10/10) Accurately ripped

==== Log checksum 066C49EF3BE80880EABFFC2E91CED8334C85154698DCAB84658D6E34029372BC ====
REM GENRE "TV Soundtrack"REM DATE 2015REM DISCID C70FF71EREM COMMENT "ExactAudioCopy v1.0b6"PERFORMER "Murray Gold"TITLE "Doctor Who: Series 8 [Disc 2]"FILE "01. The Architect.wav" WAVE TRACK 01 AUDIO TITLE "The Architect" PERFORMER "Murray Gold" ISRC GBAJC1500095 FLAGS DCP INDEX 01 00:00:00FILE "02. Rob The Bank.wav" WAVE TRACK 02 AUDIO TITLE "Rob The Bank" PERFORMER "Murray Gold" ISRC GBAJC1500096 FLAGS DCP INDEX 01 00:00:00FILE "03. Account Closed.wav" WAVE TRACK 03 AUDIO TITLE "Account Closed" PERFORMER "Murray Gold" ISRC GBAJC1500097 FLAGS DCP INDEX 01 00:00:00FILE "04. Open Up.wav" WAVE TRACK 04 AUDIO TITLE "Open Up" PERFORMER "Murray Gold" ISRC GBAJC1500098 FLAGS DCP INDEX 01 00:00:00FILE "05. The Caretaker.wav" WAVE TRACK 05 AUDIO TITLE "The Caretaker" PERFORMER "Murray Gold" ISRC GBAJC1500099 FLAGS DCP INDEX 01 00:00:00FILE "06. Are You Going To Shoot Me.wav" WAVE TRACK 06 AUDIO TITLE "Are You Going To Shoot Me?" PERFORMER "Murray Gold" ISRC GBAJC1500100 FLAGS DCP INDEX 01 00:00:00FILE "07. When I Say Run.wav" WAVE TRACK 07 AUDIO TITLE "When I Say Run" PERFORMER "Murray Gold" ISRC GBAJC1500101 FLAGS DCP INDEX 01 00:00:00FILE "08. That Is The Moon.wav" WAVE TRACK 08 AUDIO TITLE "That Is The Moon" PERFORMER "Murray Gold" ISRC GBAJC1500102 FLAGS DCP INDEX 01 00:00:00FILE "09. Start The Clock.wav" WAVE TRACK 09 AUDIO TITLE "Start The Clock" PERFORMER "Murray Gold" ISRC GBAJC1500103 FLAGS DCP INDEX 01 00:00:00FILE "10. There's That Smile.wav" WAVE TRACK 10 AUDIO TITLE "There's That Smile" PERFORMER "Murray Gold" ISRC GBAJC1500105 FLAGS DCP INDEX 01 00:00:00FILE "11. The Sarcophagus Opens.wav" WAVE TRACK 11 AUDIO TITLE "The Sarcophagus Opens" PERFORMER "Murray Gold" ISRC GBAJC1500106 FLAGS DCP INDEX 01 00:00:00FILE "12. The Artefact.wav" WAVE TRACK 12 AUDIO TITLE "The Artefact" PERFORMER "Murray Gold" ISRC GBAJC1500107 FLAGS DCP INDEX 01 00:00:00FILE "13. Study Our Own Demise.wav" WAVE TRACK 13 AUDIO TITLE "Study Our Own Demise" PERFORMER "Murray Gold" ISRC GBAJC1500108 FLAGS DCP INDEX 01 00:00:00FILE "14. Not Knowing.wav" WAVE TRACK 14 AUDIO TITLE "Not Knowing" PERFORMER "Murray Gold" ISRC GBAJC1500109 FLAGS DCP INDEX 01 00:00:00FILE "15. Siege Mode.wav" WAVE TRACK 15 AUDIO TITLE "Siege Mode" PERFORMER "Murray Gold" ISRC GBAJC1500110 FLAGS DCP INDEX 01 00:00:00FILE "16. In The Woods.wav" WAVE TRACK 16 AUDIO TITLE "In The Woods" PERFORMER "Murray Gold" ISRC GBAJC1500111 FLAGS DCP INDEX 01 00:00:00FILE "17. We Weren't Asleep That Long.wav" WAVE TRACK 17 AUDIO TITLE "We Weren't Asleep That Long" PERFORMER "Murray Gold" ISRC GBAJC1500112 FLAGS DCP INDEX 01 00:00:00FILE "18. Forgetting.wav" WAVE TRACK 18 AUDIO TITLE "Forgetting" PERFORMER "Murray Gold" ISRC GBAJC1500113 FLAGS DCP INDEX 01 00:00:00FILE "19. The Song Of Danny And Clara.wav" WAVE TRACK 19 AUDIO TITLE "The Song Of Danny And Clara" PERFORMER "Murray Gold" ISRC GBAJC1500114 FLAGS DCP INDEX 01 00:00:00FILE "20. Throw Away The Key.wav" WAVE TRACK 20 AUDIO TITLE "Throw Away The Key" PERFORMER "Murray Gold" ISRC GBAJC1500115 FLAGS DCP INDEX 01 00:00:00FILE "21. Browsing.wav" WAVE TRACK 21 AUDIO TITLE "Browsing" PERFORMER "Murray Gold" ISRC GBAJC1500116 FLAGS DCP INDEX 01 00:00:00FILE "22. They Walk Among Us.wav" WAVE TRACK 22 AUDIO TITLE "They Walk Among Us" PERFORMER "Murray Gold" ISRC GBAJC1500117 FLAGS DCP INDEX 01 00:00:00FILE "23. There Is No Clara Oswald.wav" WAVE TRACK 23 AUDIO TITLE "There Is No Clara Oswald" PERFORMER "Murray Gold" ISRC GBAJC1500118 FLAGS DCP INDEX 01 00:00:00FILE "24. Missy And Her Boys.wav" WAVE TRACK 24 AUDIO TITLE "Missy And Her Boys" PERFORMER "Murray Gold" ISRC GBAJC1500119 FLAGS DCP INDEX 01 00:00:00FILE "25. A Good Man, An Incredible Liar.wav" WAVE TRACK 25 AUDIO TITLE "A Good Man, An Incredible Liar" PERFORMER "Murray Gold" ISRC GBAJC1500120 FLAGS DCP INDEX 01 00:00:00FILE "26. Freefall.wav" WAVE TRACK 26 AUDIO TITLE "Freefall" PERFORMER "Murray Gold" FLAGS DCP INDEX 01 00:00:00FILE "27. I Need To Know.wav" WAVE TRACK 27 AUDIO TITLE "I Need To Know" PERFORMER "Murray Gold" ISRC GBAJC1500122 FLAGS DCP INDEX 01 00:00:00FILE "28. Missy's Theme [Extended].wav" WAVE TRACK 28 AUDIO TITLE "Missy's Theme [Extended]" PERFORMER "Murray Gold" ISRC GBAJC1500123 FLAGS DCP INDEX 01 00:00:00FILE "29. Missy's Gift.wav" WAVE TRACK 29 AUDIO TITLE "Missy's Gift" PERFORMER "Murray Gold" ISRC GBAJC1500124 FLAGS DCP INDEX 01 00:00:00FILE "30. (The Majestic Tale Of) An Idiot With A Box.wav" WAVE TRACK 30 AUDIO TITLE "(The Majestic Tale Of) An Idiot With A Box" PERFORMER "Murray Gold" ISRC GBAJC1500125 FLAGS DCP INDEX 01 00:00:00
[/spoiler]
[spoiler="Disc 3 [00:40:32]"]Last Christmas
01. 3 Perfectly Ordinary Roof People (4:20)
02. Do You Really Believe In Santa? (1:01)
03. Unsealing The Infirmary (2:47)
04. Ghosts (1:52)
05. What Seems To Be The Problem? (1:07)
06. We Don't Know What's Real (2:33)
07. Thinking About It (1:15)
08. Clara's Dream Christmas (3:57)
09. The Doctor's Dream Christmas (5:32)
10. Dreams Within Dreams (4:51)
11. Believe In Santa (1:30)
12. Sleigh Ride (2:47)
13. A Reunion (3:12)
14. Every Christmas Is Last Christmas (3:48)
Exact Audio Copy V1.0 beta 6 from 9. April 2015

EAC extraction logfile from 28. May 2015, 20:43

Murray Gold / Doctor Who: Series 8 [Disk 3]

Used drive : PIONEER BD-RW BDR-S09 Adapter: 1 ID: 0

Read mode : SecureUtilize accurate stream : YesDefeat audio cache : YesMake use of C2 pointers : No

Read offset correction : 667Overread into Lead-In and Lead-Out : NoFill up missing offset samples with silence : YesDelete leading and trailing silent blocks : NoNull samples used in CRC calculations : YesUsed interface : Native Win32 interface for Win NT & 2000Gap handling : Appended to previous track

Used output format : User Defined EncoderSelected bitrate : 128 kBit/sQuality : HighAdd ID3 tag : NoCommand line compressor : C:\Program Files (x86)\Exact Audio Copy\FLAC\FLAC.EXEAdditional command line options : -V -8 -T "Genre=%genre%" -T "Artist=%artist%" -T "Title=%title%" -T "Album=%albumtitle%" -T "Date=%year%" -T "Tracknumber=%tracknr%" -T "Comment=%comment%" %source%

TOC of the extracted CD

Track | Start | Length | Start sector | End sector --------------------------------------------------------- 1 | 0:00.00 | 4:20.12 | 0 | 19511 2 | 4:20.12 | 1:00.45 | 19512 | 24056 3 | 5:20.57 | 2:46.43 | 24057 | 36549 4 | 8:07.25 | 1:52.01 | 36550 | 44950 5 | 9:59.26 | 1:07.33 | 44951 | 50008 6 | 11:06.59 | 2:33.02 | 50009 | 61485 7 | 13:39.61 | 1:15.24 | 61486 | 67134 8 | 14:55.10 | 3:56.41 | 67135 | 84875 9 | 18:51.51 | 5:32.16 | 84876 | 109791 10 | 24:23.67 | 4:50.58 | 109792 | 131599 11 | 29:14.50 | 1:30.18 | 131600 | 138367 12 | 30:44.68 | 2:47.29 | 138368 | 150921 13 | 33:32.22 | 3:11.50 | 150922 | 165296 14 | 36:43.72 | 3:48.25 | 165297 | 182421

Track 1

Filename C:\Users\Mace Window\Desktop\Murray Gold - Doctor Who [Series 8]\Disk 3\01. 3 Perfectly Ordinary Roof People.wav

Pre-gap length 0:00:02.00

Peak level 96.6 % Extraction speed 2.9 X Track quality 100.0 % Test CRC E5976A16 Copy CRC E5976A16 Track not present in AccurateRip database Copy OK

Track 2

Filename C:\Users\Mace Window\Desktop\Murray Gold - Doctor Who [Series 8]\Disk 3\02. Do You Really Believe In Santa.wav

Peak level 96.6 % Extraction speed 2.2 X Track quality 100.0 % Test CRC 16D0D30C Copy CRC 16D0D30C Track not present in AccurateRip database Copy OK

Track 3

Filename C:\Users\Mace Window\Desktop\Murray Gold - Doctor Who [Series 8]\Disk 3\03. Unsealing The Infirmary.wav

Peak level 96.6 % Extraction speed 3.0 X Track quality 100.0 % Test CRC 6F9D5368 Copy CRC 6F9D5368 Track not present in AccurateRip database Copy OK

Track 4

Filename C:\Users\Mace Window\Desktop\Murray Gold - Doctor Who [Series 8]\Disk 3\04. Ghosts.wav

Peak level 96.6 % Extraction speed 3.0 X Track quality 100.0 % Test CRC 21736408 Copy CRC 21736408 Track not present in AccurateRip database Copy OK

Track 5

Filename C:\Users\Mace Window\Desktop\Murray Gold - Doctor Who [Series 8]\Disk 3\05. What Seems To Be The Problem.wav

Peak level 96.6 % Extraction speed 2.6 X Track quality 100.0 % Test CRC 346AD5E1 Copy CRC 346AD5E1 Track not present in AccurateRip database Copy OK

Track 6

Filename C:\Users\Mace Window\Desktop\Murray Gold - Doctor Who [Series 8]\Disk 3\06. We Don't Know What's Real.wav

Peak level 96.6 % Extraction speed 2.8 X Track quality 99.9 % Test CRC AE0AFF36 Copy CRC AE0AFF36 Track not present in AccurateRip database Copy OK

Track 7

Filename C:\Users\Mace Window\Desktop\Murray Gold - Doctor Who [Series 8]\Disk 3\07. Thinking About It.wav

Peak level 96.6 % Extraction speed 2.2 X Track quality 99.8 % Test CRC 27BB489A Copy CRC 27BB489A Track not present in AccurateRip database Copy OK

Track 8

Filename C:\Users\Mace Window\Desktop\Murray Gold - Doctor Who [Series 8]\Disk 3\08. Clara's Dream Christmas.wav

Peak level 96.6 % Extraction speed 3.9 X Track quality 100.0 % Test CRC 4A1F1E6D Copy CRC 4A1F1E6D Track not present in AccurateRip database Copy OK

Track 9

Filename C:\Users\Mace Window\Desktop\Murray Gold - Doctor Who [Series 8]\Disk 3\09. The Doctor's Dream Christmas.wav

Peak level 96.6 % Extraction speed 4.3 X Track quality 100.0 % Test CRC 5A3847F2 Copy CRC 5A3847F2 Track not present in AccurateRip database Copy OK

Track 10

Filename C:\Users\Mace Window\Desktop\Murray Gold - Doctor Who [Series 8]\Disk 3\10. Dreams Within Dreams.wav

Peak level 96.6 % Extraction speed 4.5 X Track quality 100.0 % Test CRC 1F3127BF Copy CRC 1F3127BF Track not present in AccurateRip database Copy OK

Track 11

Filename C:\Users\Mace Window\Desktop\Murray Gold - Doctor Who [Series 8]\Disk 3\11. Believe In Santa.wav

Peak level 96.6 % Extraction speed 3.8 X Track quality 100.0 % Test CRC B7E8AA4E Copy CRC B7E8AA4E Track not present in AccurateRip database Copy OK

Track 12

Filename C:\Users\Mace Window\Desktop\Murray Gold - Doctor Who [Series 8]\Disk 3\12. Sleigh Ride.wav

Peak level 96.6 % Extraction speed 4.4 X Track quality 100.0 % Test CRC D7008E28 Copy CRC D7008E28 Track not present in AccurateRip database Copy OK

Track 13

Filename C:\Users\Mace Window\Desktop\Murray Gold - Doctor Who [Series 8]\Disk 3\13. A Reunion.wav

Peak level 96.6 % Extraction speed 4.6 X Track quality 100.0 % Test CRC 14153A0F Copy CRC 14153A0F Track not present in AccurateRip database Copy OK

Track 14

Filename C:\Users\Mace Window\Desktop\Murray Gold - Doctor Who [Series 8]\Disk 3\14. Every Christmas Is Last Christmas.wav

Peak level 96.6 % Extraction speed 4.8 X Track quality 100.0 % Test CRC B208DD6D Copy CRC B208DD6D Track not present in AccurateRip database Copy OK

None of the tracks are present in the AccurateRip database

No errors occurred

End of status report

---- CUETools DB Plugin V2.1.6

[CTDB TOCID: 9xZhioIeUNsr8aAYdKLGSc2DMAw-] foundSubmit result: 9xZhioIeUNsr8aAYdKLGSc2DMAw- has been confirmedTrack | CTDB Status 1 | (10/10) Accurately ripped 2 | (10/10) Accurately ripped 3 | (10/10) Accurately ripped 4 | (10/10) Accurately ripped 5 | (10/10) Accurately ripped 6 | (10/10) Accurately ripped 7 | (10/10) Accurately ripped 8 | (10/10) Accurately ripped 9 | (10/10) Accurately ripped 10 | (10/10) Accurately ripped 11 | (10/10) Accurately ripped 12 | (10/10) Accurately ripped 13 | (10/10) Accurately ripped 14 | (10/10) Accurately ripped

==== Log checksum AA88D50C150838DADC8C491997F54EC8D7C232A301DEC5AE607A8B8C2C35DCF9 ====
REM GENRE "TV Soundtrack"REM DATE 2015REM DISCID B409800EREM COMMENT "ExactAudioCopy v1.0b6"PERFORMER "Murray Gold"TITLE "Doctor Who: Series 8 [Disc 3]"FILE "01. 3 Perfectly Ordinary Roof People.wav" WAVE TRACK 01 AUDIO TITLE "3 Perfectly Ordinary Roof People" PERFORMER "Murray Gold" ISRC GBAJC1500126 FLAGS DCP INDEX 01 00:00:00FILE "02. Do You Really Believe In Santa.wav" WAVE TRACK 02 AUDIO TITLE "Do You Really Believe In Santa?" PERFORMER "Murray Gold" ISRC GBAJC1500127 FLAGS DCP INDEX 01 00:00:00FILE "03. Unsealing The Infirmary.wav" WAVE TRACK 03 AUDIO TITLE "Unsealing The Infirmary" PERFORMER "Murray Gold" ISRC GBAJC1500128 FLAGS DCP INDEX 01 00:00:00FILE "04. Ghosts.wav" WAVE TRACK 04 AUDIO TITLE "Ghosts" PERFORMER "Murray Gold" ISRC GBAJC1500129 FLAGS DCP INDEX 01 00:00:00FILE "05. What Seems To Be The Problem.wav" WAVE TRACK 05 AUDIO TITLE "What Seems To Be The Problem?" PERFORMER "Murray Gold" ISRC GBAJC1500130 FLAGS DCP INDEX 01 00:00:00FILE "06. We Don't Know What's Real.wav" WAVE TRACK 06 AUDIO TITLE "We Don't Know What's Real" PERFORMER "Murray Gold" ISRC GBAJC1500131 FLAGS DCP INDEX 01 00:00:00FILE "07. Thinking About It.wav" WAVE TRACK 07 AUDIO TITLE "Thinking About It" PERFORMER "Murray Gold" ISRC GBAJC1500132 FLAGS DCP INDEX 01 00:00:00FILE "08. Clara's Dream Christmas.wav" WAVE TRACK 08 AUDIO TITLE "Clara's Dream Christmas" PERFORMER "Murray Gold" ISRC GBAJC1500133 FLAGS DCP INDEX 01 00:00:00FILE "09. The Doctor's Dream Christmas.wav" WAVE TRACK 09 AUDIO TITLE "The Doctor's Dream Christmas" PERFORMER "Murray Gold" ISRC GBAJC1500134 FLAGS DCP INDEX 01 00:00:00FILE "10. Dreams Within Dreams.wav" WAVE TRACK 10 AUDIO TITLE "Dreams Within Dreams" PERFORMER "Murray Gold" ISRC GBAJC1500135 FLAGS DCP INDEX 01 00:00:00FILE "11. Believe In Santa.wav" WAVE TRACK 11 AUDIO TITLE "Believe In Santa" PERFORMER "Murray Gold" ISRC GBAJC1500136 FLAGS DCP INDEX 01 00:00:00FILE "12. Sleigh Ride.wav" WAVE TRACK 12 AUDIO TITLE "Sleigh Ride" PERFORMER "Murray Gold" ISRC GBAJC1500137 FLAGS DCP INDEX 01 00:00:00FILE "13. A Reunion.wav" WAVE TRACK 13 AUDIO TITLE "A Reunion" PERFORMER "Murray Gold" ISRC GBAJC1500138 FLAGS DCP INDEX 01 00:00:00FILE "14. Every Christmas Is Last Christmas.wav" WAVE TRACK 14 AUDIO TITLE "Every Christmas Is Last Christmas" PERFORMER "Murray Gold" ISRC GBAJC1500139 FLAGS DCP INDEX 01 00:00:00
[/spoiler]

Трекер:  [ 16-Июн-2015 18:30 ]

  

Скачать .torrent

Размер .torrent файла 18 KB


Размер: 1.11 GB
Хэш (hash) релиза: 7c27dbbe18787821d5ff35d40ae4831f1de72a7b

Торренты, похожие на Доктор Кто: Сезон 8 Doctor Who: Series 8 скачать торрент

Форум Название Автор Размер S L Добавлен
Саундтреки к фильмам и мультфильмам (mp3) ·· (Score) Доктор Кто - 8 сезонов / Doctor Who - Series 1-8 + 4: The Specials + A Christmas Carol + The Snowmen + The Doctor, The Widow and The Wardrobe + The Day of The Doctor + The Time of The Doctor (by Murray Gold) - 2006-2015, MP3, 320 kbps Galfimbul 30971140292.88 GB 0 0 1446984530

15:08

8-Ноя-15

Еще никто не оставлял запись к записи скачать торрент Доктор Кто: Сезон 8 Doctor Who: Series 8 . Будь первым!

!Обратная связь