Скачать через торрент музыку Микаэл Таривердиев - Инструментальные кинохиты - 2003, FLAC бесплатно без регистрации torrent

Если у вас наблюдаются проблемы со скриншотами, переходом по ссылками, скачиванием торрентов - проблемы в блокировщике рекламы AdBlock. #хорошегоДня!


Статистика раздачи
Размер:  361 MB   |    Зарегистрирован:  2 года 3 месяца   |    .torrent скачан:  33 раза   |   
Раздают:  1  
   
Загрузка...
 
Автор Сообщение

Galfimbul

avatar Galfimbul


Микаэл Таривердиев - Инструментальные кинохиты

Название альбома: Инструментальные кинохиты
Жанр: Soundtrack
Композитор: Микаэл Таривердиев
Год выпуска диска: 2003
Страна-производитель диска: Россия
Издатель (лейбл): Bomba Music
Номер по каталогу: BoMB 033-79
Аудиокодек: FLAC (*.flac)
Тип рипа: image+.cue
Битрейт аудио: lossless
Продолжительность: 01:11:58
Источник: собственный рип
Наличие сканов в содержимом раздачи: да

Треклист:
01 - Прелюдия (17 мгновений весны)
02 - Дороги (17 мгновений весны)
03 - Мгновения (17 мгновений весны)
04 - Влюблённые (Любить)
05 - Последний романтик (Маленький школьный оркестр)
06 - Танец на стадионе (Человек идёт за солнцем)
07 - Утро в горах (Ольга Сергеевна)
08 - Воспоминания (Ольга Сергеевна)
09 - Детство (Ольга Сергеевна)
10 - Увертюра (Пропавшая экспедиция)
11 - Лирическая тема (Пропавшая экспедиция)
12 - Импровизация 1 (Ученик лекаря)
13 - Импровизация 2 (Ученик лекаря)
14 - Инструментальная тема (Русский регтайм)
15 - Тема Тбилиси (Я обещала, я уйду)
16 - Инструментальная тема (Летние люди)
17 - Музыка на воде (Роман а ла россо)
18 - Пары на веранде (Роман а ла россо)
19 - Сердце (Тихие омуты)
20 - Мелодия (Ирония судьбы)
21 - Вальс (Ирония судьбы)
22 - Тема заключительных титров (Ирония судьбы)
Exact Audio Copy V0.99 prebeta 4 from 23. January 2008

EAC extraction logfile from 6. June 2015, 10:57

Микаэл Таривердиев / Инструментальные кинохиты

Used drive : GIGABYTEGO-D1600C Adapter: 3 ID: 0

Read mode : SecureUtilize accurate stream : YesDefeat audio cache : YesMake use of C2 pointers : No

Read offset correction : 12Overread into Lead-In and Lead-Out : NoFill up missing offset samples with silence : YesDelete leading and trailing silent blocks : NoNull samples used in CRC calculations : YesUsed interface : Native Win32 interface for Win NT & 2000

Used output format : Internal WAV RoutinesSample format : 44.100 Hz; 16 Bit; Stereo

TOC of the extracted CD

Track | Start | Length | Start sector | End sector --------------------------------------------------------- 1 | 0:00.00 | 4:22.74 | 0 | 19723 2 | 4:22.74 | 2:59.52 | 19724 | 33200 3 | 7:22.51 | 2:05.04 | 33201 | 42579 4 | 9:27.55 | 1:35.20 | 42580 | 49724 5 | 11:03.00 | 5:45.56 | 49725 | 75655 6 | 16:48.56 | 3:11.02 | 75656 | 89982 7 | 19:59.58 | 4:10.46 | 89983 | 108778 8 | 24:10.29 | 2:24.39 | 108779 | 119617 9 | 26:34.68 | 2:04.13 | 119618 | 128930 10 | 28:39.06 | 2:16.65 | 128931 | 139195 11 | 30:55.71 | 1:50.55 | 139196 | 147500 12 | 32:46.51 | 2:48.15 | 147501 | 160115 13 | 35:34.66 | 2:45.57 | 160116 | 172547 14 | 38:20.48 | 2:36.19 | 172548 | 184266 15 | 40:56.67 | 4:37.08 | 184267 | 205049 16 | 45:34.00 | 5:20.24 | 205050 | 229073 17 | 50:54.24 | 4:40.14 | 229074 | 250087 18 | 55:34.38 | 3:18.46 | 250088 | 264983 19 | 58:53.09 | 5:19.71 | 264984 | 288979 20 | 64:13.05 | 2:50.38 | 288980 | 301767 21 | 67:03.43 | 1:45.58 | 301768 | 309700 22 | 68:49.26 | 3:09.41 | 309701 | 323916

Range status and errors

Selected range

Filename D:\Temp\Микаэл Таривердиев - Инструментальные кинохиты - 2003\Микаэл Таривердиев - Инструментальные кинохиты.wav

Peak level 33.3 % Range quality 100.0 % Test CRC E2110A7E Copy CRC E2110A7E Copy OK

No errors occurred

AccurateRip summary

Track 1 accurately ripped (confidence 1) [0B265E12]Track 2 accurately ripped (confidence 1) [79264331]Track 3 accurately ripped (confidence 1) [C33E5009]Track 4 accurately ripped (confidence 1) [4854448C]Track 5 accurately ripped (confidence 1) [8967F380]Track 6 accurately ripped (confidence 1) [6246C214]Track 7 accurately ripped (confidence 1) [536FFD8B]Track 8 accurately ripped (confidence 1) [F4339294]Track 9 accurately ripped (confidence 1) [C5458070]Track 10 accurately ripped (confidence 1) [EBF4C58A]Track 11 accurately ripped (confidence 1) [AB263315]Track 12 accurately ripped (confidence 1) [73985321]Track 13 accurately ripped (confidence 1) [207C9AF8]Track 14 accurately ripped (confidence 1) [BDA28CA4]Track 15 accurately ripped (confidence 1) [B1E34D24]Track 16 accurately ripped (confidence 1) [F4F98B89]Track 17 accurately ripped (confidence 1) [02199E98]Track 18 accurately ripped (confidence 1) [5A862DD6]Track 19 accurately ripped (confidence 1) [5DC7755C]Track 20 accurately ripped (confidence 1) [CA1E3209]Track 21 accurately ripped (confidence 1) [5D72F4BD]Track 22 accurately ripped (confidence 1) [BA7DA6E1]

All tracks accurately ripped

End of status report


Трекер:  [ 16-Июн-2015 18:30 ]

  

Скачать .torrent

Размер .torrent файла 15 KB


Размер: 361 MB
Хэш (hash) релиза: 720e976eb4df5866ba548cca60b021cc6d344e7d

Еще никто не оставлял запись к записи скачать торрент Микаэл Таривердиев - Инструментальные кинохиты - 2003, FLAC . Будь первым!

!Обратная связь