Скачать порно через торрент Liquid Gold #4 Жидкое золото #4 UnionPeer.org бесплатно онлайн HD качество

Скачать новое порно 2015, 2014 новинки через торрент UnionPeer.org

Порно торрент бесплатно ЮнионПир.орг

Если у вас наблюдаются проблемы со скриншотами, переходом по ссылками, скачиванием торрентов - проблемы в блокировщике рекламы AdBlock. #хорошегоДня!


Статистика раздачи
Размер:  778 MB   |    Зарегистрирован:  2 года 4 месяца   |    .torrent скачан:  435 раз   |   
Раздают:  2  
   
Загрузка...
 
Автор Сообщение

Galfimbul

avatar Galfimbul


Liquid Gold #4 / Жидкое золото #4

Год производства: 2000 г.
Страна: USA
Жанр: peeing, solo, all girls
Продолжительность: 00:49:56

Режиссер: Jim Powers
Студия: JM Productions

http://www.iafd.com/title.rme/title=Liquid+Gold+4/year=2000/Liquid_Gold_4.htm
http://www.imdb.com/title/tt0302724/

В ролях: Allysin Embers, Anastasia Blue, Briana Banks, Chocolate, Dynamite, Fiona Cheeks, Gia Regency, Ginger Lixxx, Goldie McHawn, Jodie Moore, Keegan Skky, Kelsey Hart, Kiyana Bradley, Layla Jade, Lil Ass, Meesha, Mocha, Monique, Naughtia Childs, Noname Jane, Promise, Samantha Sterlyng, Shawna Edwards, Torie Little

Описание: If you thirst for piss, this video is for you. 25 of the biggest names in porn cop a squat and piss for your viewing pleasure. Watch as each whore drains their bladder leaving behind of riving of LIQUID GOLD. Enjoy, Jeff Steward.

Качество видео: DVDRip
Формат видео: AVI
Видео: Xvid 624x480 (4:3) 29.97fps 1907kbps
Аудио: MP3 44100Hz stereo 256kbps
Доп. информация:
[spoiler="Доп. информация"]

Format : AVI
Format/Info : Audio Video Interleave
File size : 778 MiB
Duration : 49mn 56s
Overall bit rate : 2 177 Kbps
Writing application : Lavf52.93.0

Video
ID : 0
Format : xvid
Codec ID : xvid
Duration : 49mn 56s
Bit rate : 1 908 Kbps
Width : 624 pixels
Height : 480 pixels
Display aspect ratio : 4:3
Frame rate : 29.970 fps
Bits/(Pixel*Frame) : 0.213
Stream size : 681 MiB (88%)

Audio
ID : 1
Format : MPEG Audio
Format version : Version 1
Format profile : Layer 3
Mode : Joint stereo
Mode extension : MS Stereo
Codec ID : 55
Codec ID/Hint : MP3
Duration : 49mn 56s
Bit rate mode : Constant
Bit rate : 256 Kbps
Channel(s) : 2 channels
Sampling rate : 44.1 KHz
Compression mode : Lossy
Stream size : 91.4 MiB (12%)
Alignment : Aligned on interleaves
Interleave, duration : 26 ms (0.78 video frame)
Interleave, preload duration : 78 ms
Writing library : LAME3.98.4[/spoiler]

Трекер:  [ 29-Май-2015 05:30 ]

  

Скачать .torrent

Размер .torrent файла 15 KB


Размер: 778 MB
Хэш (hash) релиза: 340b071314673f73d54d9f8a13eb015b3d27cccf

Еще никто не оставлял запись к записи скачать торрент Liquid Gold #4 Жидкое золото #4 . Будь первым!

!Обратная связь