Скачать порно через торрент Ashley Blue's Attention Whores 3 Осторожно бляди 3 UnionPeer.org бесплатно онлайн HD качество

Скачать новое порно 2015, 2014 новинки через торрент UnionPeer.org

Порно торрент бесплатно ЮнионПир.орг

Если у вас наблюдаются проблемы со скриншотами, переходом по ссылками, скачиванием торрентов - проблемы в блокировщике рекламы AdBlock. #хорошегоДня!


Статистика раздачи
Размер:  1.73 GB   |    Зарегистрирован:  2 года 4 месяца   |    .torrent скачан:  175 раз   |   
Раздают:  1  
   
Загрузка...
 
Автор Сообщение

Galfimbul

avatar Galfimbul


Ashley Blue''s Attention Whores 3 / Осторожно бляди 3



Год производства: 2005 г.
Страна: USA
Жанр: Anal Gonzo
Продолжительность: 01:54:01
Язык: Английский

Режиссер: Ashley Blue
Студия: JM Productions

В ролях: Ashley Blue, Bianca Pureheart, Christie Lee, Avy Lee Roth, Alec Knight, Venus, Katrina Kraven, Rick Masters, Johnny Thrust, Chance Caldwell

Описание: Любите нас, поклоняетесь нам. Мы делаем все эти отвратительные вещи только для того, что бы доставить вам удовольствие. Только намекните, и мы сделаем упругим ваш член. Без вашей любви и внимания мы не чувствуем себя полноценными. Мы лишь сексуальные игрушки, изготовленные для вашего развлечения.

Доп. информация:
[spoiler="Доп. информация"]

Format : AVI
Format/Info : Audio Video Interleave
Format profile : OpenDML
File size : 1.73 GiB
Duration : 1h 54mn
Overall bit rate : 2 178 Kbps
Writing application : Lavf52.93.0

Video
ID : 0
Format : xvid
Codec ID : xvid
Duration : 1h 54mn
Bit rate : 1 908 Kbps
Width : 624 pixels
Height : 480 pixels
Display aspect ratio : 4:3
Frame rate : 29.970 fps
Bits/(Pixel*Frame) : 0.213
Stream size : 1.52 GiB (88%)

Audio
ID : 1
Format : MPEG Audio
Format version : Version 1
Format profile : Layer 3
Mode : Joint stereo
Codec ID : 55
Codec ID/Hint : MP3
Duration : 1h 54mn
Bit rate mode : Constant
Bit rate : 256 Kbps
Channel(s) : 2 channels
Sampling rate : 44.1 KHz
Compression mode : Lossy
Stream size : 209 MiB (12%)
Alignment : Aligned on interleaves
Interleave, duration : 26 ms (0.78 video frame)
Interleave, preload duration : 78 ms
Writing library : LAME3.98.4[/spoiler]
Качество видео: SiteRip
Формат видео: AVI
Видео: Video: Xvid 624x480 (4:3) 29.97fps 1907kbps [V: mpeg4 simple profile, yuv420p, 624x480, 1907 kb/s]
Аудио: Audio: MP3 44100Hz stereo 256kbps [A: mp3, 44100 Hz, stereo, 256 kb/s]

Трекер:  [ 26-Май-2015 17:00 ]

  

Скачать .torrent

Размер .torrent файла 18 KB


Размер: 1.73 GB
Хэш (hash) релиза: 345595370bc3221236742a65521af3fd3d42d804

Еще никто не оставлял запись к записи скачать торрент Ashley Blue's Attention Whores 3 Осторожно бляди 3 . Будь первым!

!Обратная связь