Скачать через торрент музыку Из машины Ex Machina бесплатно без регистрации torrent

Если у вас наблюдаются проблемы со скриншотами, переходом по ссылками, скачиванием торрентов - проблемы в блокировщике рекламы AdBlock. #хорошегоДня!


Статистика раздачи
Размер:  250 MB   |    Зарегистрирован:  2 года 4 месяца   |    .torrent скачан:  63 раза   |   
Раздают:  1  
   
Загрузка...
 
Автор Сообщение

Galfimbul

avatar Galfimbul



Из машины Ex_Machina
Название альбома: Ex_Machina
Жанр: Abstract, Ambient, Experimental
Композитор: Ben Salisbury & Geoff Barrow
Год выпуска диска: 2015
Год выпуска фильма: 2015
Страна-производитель диска: UK
Издатель (лейбл): INVADA
Номер по каталогу: INV144CD
Аудиокодек: FLAC (*.flac)
Тип рипа: tracks+.cue
Битрейт аудио: lossless
Продолжительность: 00:48:24+00:20:16
Источник: скачано с
сайт-источник/ник/другое: what
Наличие сканов в содержимом раздачи: нет
Треклист:
CD 1 - Original Score
01. The Turing Test (4:34)
02. Watching (5:20)
03. Ava (2:22)
04. Falling (5:36)
05. I Am Become Death (3:18)
06. Hacking / Cutting (6:40)
07. The Test Worked (9:03)
08. Skin (5:27)
09. Out (2:02)
10. Bunsen Burner (4:02)
CD 2 - Bonus Material
01. The Lab (1:41)
02. Masks (2:29)
03. Ava Undresses (Demo Version 1) (2:12)
04. Session 2 (0:35)
05. Mary Experiment (2:58)
06. Ava Turns To CCTV (1:48)
07. Climbing The Waterfall (1:48)
08. Ava Undresses (Demo Version 2) (1:34)
09. Reversing The Test (2:04)
10. A Beginning (3:07)
Exact Audio Copy V1.0 beta 1 from 15. November 2010

EAC extraction logfile from 6. May 2015, 19:48

Ben Salisbury & Geoff Barrow / Ex_Machina

Used drive : Optiarc DVD RW AD-5260S Adapter: 0 ID: 1

Read mode : SecureUtilize accurate stream : YesDefeat audio cache : YesMake use of C2 pointers : No

Read offset correction : 48Overread into Lead-In and Lead-Out : NoFill up missing offset samples with silence : YesDelete leading and trailing silent blocks : NoNull samples used in CRC calculations : YesUsed interface : Native Win32 interface for Win NT & 2000Gap handling : Appended to previous track

Used output format : User Defined EncoderSelected bitrate : 128 kBit/sQuality : HighAdd ID3 tag : NoCommand line compressor : C:\Program Files (x86)\Burrrn\flac.exeAdditional command line options : -V -8 -T "artist=%a" -T "title=%t" -T "album=%g" -T "date=%y" -T "tracknumber=%n" -T "genre=%m" %s

TOC of the extracted CD

Track | Start | Length | Start sector | End sector --------------------------------------------------------- 1 | 0:00.00 | 4:34.07 | 0 | 20556 2 | 4:34.07 | 5:19.43 | 20557 | 44524 3 | 9:53.50 | 2:22.17 | 44525 | 55191 4 | 12:15.67 | 5:36.19 | 55192 | 80410 5 | 17:52.11 | 3:18.26 | 80411 | 95286 6 | 21:10.37 | 6:39.39 | 95287 | 125250 7 | 27:50.01 | 9:02.74 | 125251 | 165974 8 | 36:53.00 | 5:27.29 | 165975 | 190528 9 | 42:20.29 | 2:02.12 | 190529 | 199690 10 | 44:22.41 | 4:02.06 | 199691 | 217846

Track 1

Filename C:\Dustie Documents\EAC ripping\Ben Salisbury & Geoff Barrow - Ex_Machina\01. The Turing Test.wav

Pre-gap length 0:00:02.00

Peak level 99.7 % Extraction speed 2.3 X Track quality 100.0 % Test CRC C28E60FC Copy CRC C28E60FC Track not present in AccurateRip database Copy OK

Track 2

Filename C:\Dustie Documents\EAC ripping\Ben Salisbury & Geoff Barrow - Ex_Machina\02. Watching.wav

Pre-gap length 0:00:02.80

Peak level 95.0 % Extraction speed 2.7 X Track quality 100.0 % Test CRC 165302CC Copy CRC 165302CC Track not present in AccurateRip database Copy OK

Track 3

Filename C:\Dustie Documents\EAC ripping\Ben Salisbury & Geoff Barrow - Ex_Machina\03. Ava.wav

Pre-gap length 0:00:02.80

Peak level 32.2 % Extraction speed 2.6 X Track quality 100.0 % Test CRC E6B8E574 Copy CRC E6B8E574 Track not present in AccurateRip database Copy OK

Track 4

Filename C:\Dustie Documents\EAC ripping\Ben Salisbury & Geoff Barrow - Ex_Machina\04. Falling.wav

Pre-gap length 0:00:02.80

Peak level 99.7 % Extraction speed 3.2 X Track quality 100.0 % Test CRC 76EDD679 Copy CRC 76EDD679 Track not present in AccurateRip database Copy OK

Track 5

Filename C:\Dustie Documents\EAC ripping\Ben Salisbury & Geoff Barrow - Ex_Machina\05. I Am Become Death.wav

Pre-gap length 0:00:02.80

Peak level 99.7 % Extraction speed 3.2 X Track quality 100.0 % Test CRC D724E244 Copy CRC D724E244 Track not present in AccurateRip database Copy OK

Track 6

Filename C:\Dustie Documents\EAC ripping\Ben Salisbury & Geoff Barrow - Ex_Machina\06. Hacking , Cutting.wav

Pre-gap length 0:00:02.80

Peak level 99.9 % Extraction speed 3.7 X Track quality 100.0 % Test CRC F3C63044 Copy CRC F3C63044 Track not present in AccurateRip database Copy OK

Track 7

Filename C:\Dustie Documents\EAC ripping\Ben Salisbury & Geoff Barrow - Ex_Machina\07. The Test Worked.wav

Pre-gap length 0:00:02.80

Peak level 99.7 % Extraction speed 4.2 X Track quality 100.0 % Test CRC 530D783D Copy CRC 530D783D Track not present in AccurateRip database Copy OK

Track 8

Filename C:\Dustie Documents\EAC ripping\Ben Salisbury & Geoff Barrow - Ex_Machina\08. Skin.wav

Pre-gap length 0:00:02.80

Peak level 99.9 % Extraction speed 4.3 X Track quality 100.0 % Test CRC 83A65F99 Copy CRC 83A65F99 Track not present in AccurateRip database Copy OK

Track 9

Filename C:\Dustie Documents\EAC ripping\Ben Salisbury & Geoff Barrow - Ex_Machina\09. Out.wav

Pre-gap length 0:00:02.80

Peak level 99.5 % Extraction speed 3.6 X Track quality 100.0 % Test CRC 50461F28 Copy CRC 50461F28 Track not present in AccurateRip database Copy OK

Track 10

Filename C:\Dustie Documents\EAC ripping\Ben Salisbury & Geoff Barrow - Ex_Machina\10. Bunsen Burner.wav

Peak level 99.8 % Extraction speed 3.9 X Track quality 99.9 % Test CRC 07F8BD75 Copy CRC 07F8BD75 Track not present in AccurateRip database Copy OK

None of the tracks are present in the AccurateRip database

No errors occurred

End of status report

==== Log checksum 069015B4A69C71DEC934EBDD13480D16B1EE4D49922ED8D4B0FD5A418140EAD3 ====
Exact Audio Copy V1.0 beta 1 from 15. November 2010

EAC extraction logfile from 6. May 2015, 20:08

Ben Salisbury & Geoff Barrow / Ex_Machine (Bonus Disc)

Used drive : Optiarc DVD RW AD-5260S Adapter: 0 ID: 1

Read mode : SecureUtilize accurate stream : YesDefeat audio cache : YesMake use of C2 pointers : No

Read offset correction : 48Overread into Lead-In and Lead-Out : NoFill up missing offset samples with silence : YesDelete leading and trailing silent blocks : NoNull samples used in CRC calculations : YesUsed interface : Native Win32 interface for Win NT & 2000Gap handling : Appended to previous track

Used output format : User Defined EncoderSelected bitrate : 128 kBit/sQuality : HighAdd ID3 tag : NoCommand line compressor : C:\Program Files (x86)\Burrrn\flac.exeAdditional command line options : -V -8 -T "artist=%a" -T "title=%t" -T "album=%g" -T "date=%y" -T "tracknumber=%n" -T "genre=%m" %s

TOC of the extracted CD

Track | Start | Length | Start sector | End sector --------------------------------------------------------- 1 | 0:00.00 | 1:41.04 | 0 | 7578 2 | 1:41.04 | 2:28.45 | 7579 | 18723 3 | 4:09.49 | 2:12.17 | 18724 | 28640 4 | 6:21.66 | 0:35.22 | 28641 | 31287 5 | 6:57.13 | 2:58.36 | 31288 | 44673 6 | 9:55.49 | 1:47.46 | 44674 | 52744 7 | 11:43.20 | 1:48.18 | 52745 | 60862 8 | 13:31.38 | 1:33.64 | 60863 | 67901 9 | 15:05.27 | 2:04.05 | 67902 | 77206 10 | 17:09.32 | 3:06.64 | 77207 | 91220

Track 1

Filename C:\Dustie Documents\EAC ripping\Ben Salisbury & Geoff Barrow - Ex_Machine (Bonus Disc)\01. The Lab.wav

Pre-gap length 0:00:02.00

Peak level 58.7 % Extraction speed 1.8 X Track quality 100.0 % Test CRC C4830D1E Copy CRC C4830D1E Track not present in AccurateRip database Copy OK

Track 2

Filename C:\Dustie Documents\EAC ripping\Ben Salisbury & Geoff Barrow - Ex_Machine (Bonus Disc)\02. Masks.wav

Pre-gap length 0:00:02.80

Peak level 99.7 % Extraction speed 2.1 X Track quality 100.0 % Test CRC B30AF48C Copy CRC B30AF48C Track not present in AccurateRip database Copy OK

Track 3

Filename C:\Dustie Documents\EAC ripping\Ben Salisbury & Geoff Barrow - Ex_Machine (Bonus Disc)\03. Ava Undresses (Demo Version 1).wav

Pre-gap length 0:00:02.80

Peak level 99.7 % Extraction speed 2.3 X Track quality 100.0 % Test CRC 4A646724 Copy CRC 4A646724 Track not present in AccurateRip database Copy OK

Track 4

Filename C:\Dustie Documents\EAC ripping\Ben Salisbury & Geoff Barrow - Ex_Machine (Bonus Disc)\04. Session 2.wav

Pre-gap length 0:00:02.80

Peak level 22.0 % Extraction speed 1.4 X Track quality 100.0 % Test CRC 35649A75 Copy CRC 35649A75 Track not present in AccurateRip database Copy OK

Track 5

Filename C:\Dustie Documents\EAC ripping\Ben Salisbury & Geoff Barrow - Ex_Machine (Bonus Disc)\05. Mary Experiment.wav

Pre-gap length 0:00:02.80

Peak level 50.6 % Extraction speed 2.6 X Track quality 100.0 % Test CRC 0421BE3F Copy CRC 0421BE3F Track not present in AccurateRip database Copy OK

Track 6

Filename C:\Dustie Documents\EAC ripping\Ben Salisbury & Geoff Barrow - Ex_Machine (Bonus Disc)\06. Ava Turns To CCTV.wav

Pre-gap length 0:00:02.80

Peak level 99.7 % Extraction speed 2.4 X Track quality 100.0 % Test CRC 5E84F888 Copy CRC 5E84F888 Track not present in AccurateRip database Copy OK

Track 7

Filename C:\Dustie Documents\EAC ripping\Ben Salisbury & Geoff Barrow - Ex_Machine (Bonus Disc)\07. Climbing The Waterfall.wav

Pre-gap length 0:00:02.80

Peak level 94.1 % Extraction speed 2.0 X Track quality 99.9 % Test CRC 4893A8FC Copy CRC 4893A8FC Track not present in AccurateRip database Copy OK

Track 8

Filename C:\Dustie Documents\EAC ripping\Ben Salisbury & Geoff Barrow - Ex_Machine (Bonus Disc)\08. Ava Undresses (Demo Version 2).wav

Pre-gap length 0:00:02.80

Peak level 88.7 % Extraction speed 2.4 X Track quality 100.0 % Test CRC 245397D2 Copy CRC 245397D2 Track not present in AccurateRip database Copy OK

Track 9

Filename C:\Dustie Documents\EAC ripping\Ben Salisbury & Geoff Barrow - Ex_Machine (Bonus Disc)\09. Reversing The Test.wav

Pre-gap length 0:00:02.80

Peak level 99.7 % Extraction speed 2.7 X Track quality 100.0 % Test CRC E0EAB866 Copy CRC E0EAB866 Track not present in AccurateRip database Copy OK

Track 10

Filename C:\Dustie Documents\EAC ripping\Ben Salisbury & Geoff Barrow - Ex_Machine (Bonus Disc)\10. A Beginning.wav

Pre-gap length 0:00:02.80

Peak level 47.3 % Extraction speed 3.1 X Track quality 100.0 % Test CRC 236BC0AB Copy CRC 236BC0AB Track not present in AccurateRip database Copy OK

None of the tracks are present in the AccurateRip database

No errors occurred

End of status report

==== Log checksum 8B9FA4E6970724F3AF60BECC28CE371F4C11F7DA2B78ED0DD3082503EF2B9592 ====
REM GENRE SoundtrackREM DATE 2015REM DISCID 860B580AREM COMMENT "ExactAudioCopy v1.0b1"FILE "Ben Salisbury & Geoff Barrow - Ex_Machina\01. The Turing Test.wav" WAVE TRACK 01 AUDIO INDEX 01 00:00:00 TRACK 02 AUDIO INDEX 00 04:31:22FILE "Ben Salisbury & Geoff Barrow - Ex_Machina\02. Watching.wav" WAVE INDEX 01 00:00:00 TRACK 03 AUDIO INDEX 00 05:16:58FILE "Ben Salisbury & Geoff Barrow - Ex_Machina\03. Ava.wav" WAVE INDEX 01 00:00:00 TRACK 04 AUDIO INDEX 00 02:19:32FILE "Ben Salisbury & Geoff Barrow - Ex_Machina\04. Falling.wav" WAVE INDEX 01 00:00:00 TRACK 05 AUDIO INDEX 00 05:33:34FILE "Ben Salisbury & Geoff Barrow - Ex_Machina\05. I Am Become Death.wav" WAVE INDEX 01 00:00:00 TRACK 06 AUDIO INDEX 00 03:15:41FILE "Ben Salisbury & Geoff Barrow - Ex_Machina\06. Hacking , Cutting.wav" WAVE INDEX 01 00:00:00 TRACK 07 AUDIO INDEX 00 06:36:54FILE "Ben Salisbury & Geoff Barrow - Ex_Machina\07. The Test Worked.wav" WAVE INDEX 01 00:00:00 TRACK 08 AUDIO INDEX 00 09:00:14FILE "Ben Salisbury & Geoff Barrow - Ex_Machina\08. Skin.wav" WAVE INDEX 01 00:00:00 TRACK 09 AUDIO INDEX 00 05:24:44FILE "Ben Salisbury & Geoff Barrow - Ex_Machina\09. Out.wav" WAVE INDEX 01 00:00:00FILE "Ben Salisbury & Geoff Barrow - Ex_Machina\10. Bunsen Burner.wav" WAVE TRACK 10 AUDIO INDEX 01 00:00:00
REM GENRE SoundtrackREM DATE 2015REM DISCID 6C04C00AREM COMMENT "ExactAudioCopy v1.0b1"FILE "Ben Salisbury & Geoff Barrow - Ex_Machine (Bonus Disc)\01. The Lab.wav" WAVE TRACK 01 AUDIO INDEX 01 00:00:00 TRACK 02 AUDIO INDEX 00 01:38:19FILE "Ben Salisbury & Geoff Barrow - Ex_Machine (Bonus Disc)\02. Masks.wav" WAVE INDEX 01 00:00:00 TRACK 03 AUDIO INDEX 00 02:25:60FILE "Ben Salisbury & Geoff Barrow - Ex_Machine (Bonus Disc)\03. Ava Undresses (Demo Version 1).wav" WAVE INDEX 01 00:00:00 TRACK 04 AUDIO INDEX 00 02:09:32FILE "Ben Salisbury & Geoff Barrow - Ex_Machine (Bonus Disc)\04. Session 2.wav" WAVE INDEX 01 00:00:00 TRACK 05 AUDIO INDEX 00 00:32:37FILE "Ben Salisbury & Geoff Barrow - Ex_Machine (Bonus Disc)\05. Mary Experiment.wav" WAVE INDEX 01 00:00:00 TRACK 06 AUDIO INDEX 00 02:55:51FILE "Ben Salisbury & Geoff Barrow - Ex_Machine (Bonus Disc)\06. Ava Turns To CCTV.wav" WAVE INDEX 01 00:00:00 TRACK 07 AUDIO INDEX 00 01:44:61FILE "Ben Salisbury & Geoff Barrow - Ex_Machine (Bonus Disc)\07. Climbing The Waterfall.wav" WAVE INDEX 01 00:00:00 TRACK 08 AUDIO INDEX 00 01:45:33FILE "Ben Salisbury & Geoff Barrow - Ex_Machine (Bonus Disc)\08. Ava Undresses (Demo Version 2).wav" WAVE INDEX 01 00:00:00 TRACK 09 AUDIO INDEX 00 01:31:04FILE "Ben Salisbury & Geoff Barrow - Ex_Machine (Bonus Disc)\09. Reversing The Test.wav" WAVE INDEX 01 00:00:00 TRACK 10 AUDIO INDEX 00 02:01:20FILE "Ben Salisbury & Geoff Barrow - Ex_Machine (Bonus Disc)\10. A Beginning.wav" WAVE INDEX 01 00:00:00
-----------------------

DON'T MODIFY THIS FILE

-----------------------

PERFORMER: auCDtect Task Manager, ver. 1.6.0 RC1 build 1.6.0.1Copyright (c) 2008-2010 y-soft. All rights reservedhttp://y-soft.org

ANALYZER: auCDtect: CD records authenticity detector, version 0.8.2Copyright (c) 2004 Oleg Berngardt. All rights reserved.Copyright (c) 2004 Alexander Djourik. All rights reserved.

FILE: 03. Ava.flac Size: 7778600 Hash: 2A7463AAB72140FC29557DFCBE690AD0 Accuracy: -m0 Conclusion: MPEG 100% Signature: EBEFB66322A50C2BEF61ECB7F69B84B5BEAE3ECBFILE: 02. Watching.flac Size: 18016300 Hash: 40661460884BD8C3D870EBBF44730F23 Accuracy: -m0 Conclusion: MPEG 99% Signature: 6EDCB1C6DF3BFF2AB93C990A2316A1BC43E196AEFILE: 01. The Turing Test.flac Size: 15530104 Hash: 82BF026FF4DE5CB7ED42555D19A1C7A4 Accuracy: -m0 Conclusion: MPEG 100% Signature: C1F52B9A2EA7862795ED17DAEE8D238C8360F409FILE: 10. Bunsen Burner.flac Size: 22387465 Hash: 26712B9E6F153A25397EFBCFF8620E2B Accuracy: -m0 Conclusion: CDDA 100% Signature: FFD76E5DB284F9E5FD9792FDD7717CA8CD622E8CFILE: 09. Out.flac Size: 9326747 Hash: F0E36EC667013F6E7453CCB2FB9FE062 Accuracy: -m0 Conclusion: MPEG 100% Signature: 290556EE5B79C1BF1FD6049D3B69B0FBF690D835FILE: 08. Skin.flac Size: 22539200 Hash: 42A9FC8AEBA95A9F37C93147EF1A172D Accuracy: -m0 Conclusion: MPEG 100% Signature: BF5490D712FEC85A587398C407354E0DB761F7AAFILE: 07. The Test Worked.flac Size: 33448411 Hash: D95B6F30569E53AD68C25C8CCEEAFE86 Accuracy: -m0 Conclusion: MPEG 100% Signature: 18F7F60E0A7420BA52ED7974EA56EBCBBF25E444FILE: 06. Hacking , Cutting.flac Size: 27439675 Hash: A9F5D8BCDB8BAB17FB5987ACB77A4D75 Accuracy: -m0 Conclusion: CDDA 86% Signature: A56561220D2D182885DBBBDAA6CF53A940306DB3FILE: 05. I Am Become Death.flac Size: 11760446 Hash: E043031270405C74734EC1A0C258380F Accuracy: -m0 Conclusion: MPEG 100% Signature: 06128E93687F9CE63593815DC982389522638DDCFILE: 04. Falling.flac Size: 20421516 Hash: 8A88822A94280FB72FD4310B8DABD40B Accuracy: -m0 Conclusion: MPEG 100% Signature: 971ED3F8DDEB5A30E14B5FEFAFB369F765B21A99
-----------------------

DON'T MODIFY THIS FILE

-----------------------

PERFORMER: auCDtect Task Manager, ver. 1.6.0 RC1 build 1.6.0.1Copyright (c) 2008-2010 y-soft. All rights reservedhttp://y-soft.org

ANALYZER: auCDtect: CD records authenticity detector, version 0.8.2Copyright (c) 2004 Oleg Berngardt. All rights reserved.Copyright (c) 2004 Alexander Djourik. All rights reserved.

FILE: 03. Ava Undresses (Demo Version 1).flac Size: 8744788 Hash: B70236186924A327BEDB84A22300AA25 Accuracy: -m0 Conclusion: MPEG 99% Signature: 74CDE30D3804F0ABF4AB3F351E109764C687A741FILE: 02. Masks.flac Size: 8539840 Hash: A7AFB7D619FF51100CF77DC8ADEEFF6E Accuracy: -m0 Conclusion: MPEG 100% Signature: 64D487ECF2370C0C10276D5744748B309128D32BFILE: 01. The Lab.flac Size: 5530905 Hash: 258E57F5CA55B6C79D2B5CB5EC290603 Accuracy: -m0 Conclusion: MPEG 100% Signature: 87803ECE87AC0ABD161D970763C7F18386EB600EFILE: 10. A Beginning.flac Size: 11809539 Hash: 42C95F59C7256F0325DD47CE36B08153 Accuracy: -m0 Conclusion: MPEG 100% Signature: B79177F91A5E131CF4E8E95E9DE3ED6FA59ACF38FILE: 09. Reversing The Test.flac Size: 7846418 Hash: F1BD3FB86497363B4B1606D7B7635293 Accuracy: -m0 Conclusion: MPEG 100% Signature: 81D30926D1A33FF8C0EDEFB39D497AD1F7772DE4FILE: 08. Ava Undresses (Demo Version 2).flac Size: 5459214 Hash: DBF5479DC051C33FC838265E6B184108 Accuracy: -m0 Conclusion: MPEG 100% Signature: 36115DA180F0018241BC47C7617CC6B59AE15936FILE: 07. Climbing The Waterfall.flac Size: 6972841 Hash: 83AEEE3FFEECF9D7A787ABB75E129951 Accuracy: -m0 Conclusion: MPEG 99% Signature: AD715CCD47DA8AB1AE0CB1D36F828CA31091AF00FILE: 06. Ava Turns To CCTV.flac Size: 6800716 Hash: 71B6850C44874EC2F62CF40E8DAD4B4A Accuracy: -m0 Conclusion: MPEG 100% Signature: 5662A994BD05439A1A11616CD7FDDB4BC9CD03BEFILE: 05. Mary Experiment.flac Size: 9933224 Hash: 18FD51EEBA0FF097E0BA1FAF7A9D8559 Accuracy: -m0 Conclusion: MPEG 100% Signature: B859D0D433AAEA9643FCD8E5C5711E534A3CA958FILE: 04. Session 2.flac Size: 1782948 Hash: 5CEFAE43C0B54209F6992849F0BB0289 Accuracy: -m0 Conclusion: CDDA 49% Signature: FBE9E243E21B447B4D58EAAB095B36CE37C75840


Трекер:  [ 16-Май-2015 18:00 ]

  

Скачать .torrent

Размер .torrent файла 22 KB


Размер: 250 MB
Хэш (hash) релиза: a726380de074445e8d0c4cf202e313844b00eef2

Торренты, похожие на Из машины Ex Machina скачать торрент

Форум Название Автор Размер S L Добавлен
Саундтреки к фильмам и мультфильмам (mp3) ·· [Soundtrack / Unofficial] Из машины / Ex Machina (VA) - 2015, MP3, 320 kbps Galfimbul 195766609187 MB 0 0 1461564194

09:03

25-Апр-16

Саундтреки к фильмам и мультфильмам (mp3) ·· [Soundtrack / Unofficial] Из машины / Ex Machina (VA) - 2015, MP3, 320 kbps Galfimbul 169165674161 MB 0 0 1446104459

10:40

29-Окт-15

Саундтреки к фильмам и мультфильмам (mp3) ·· (Score) Из машины / Ex Machina (Ben Salisbury, Geoff Barrow) - 2015, MP3 (tracks) 320 kbps Galfimbul 115663876110 MB 2 0 1428578151

14:15

9-Апр-15

Еще никто не оставлял запись к записи скачать торрент Из машины Ex Machina . Будь первым!

!Обратная связь