Скачать через торрент Сенран Кагура: Летнее противостояние - Евы в купальниках Senran Kagura: Estival Versus - Mizugi Darake no Zenyasai бесплатно Аниме Все серии на русском torrent

Если у вас наблюдаются проблемы со скриншотами, переходом по ссылками, скачиванием торрентов - проблемы в блокировщике рекламы AdBlock. #хорошегоДня!


Статистика раздачи
Размер:  443 MB   |    Зарегистрирован:  2 года 4 месяца   |    .torrent скачан:  260 раз   |   
Раздают:  1  
   
Загрузка...
 
Автор Сообщение

Galfimbul

avatar Galfimbul


Сенран Кагура: Летнее противостояние - Евы в купальниках / Senran Kagura: Estival Versus - Mizugi Darake no Zenyasai

Страна: Япония
Год выпуска: 2015 г.
Жанр: комедия, этти
Тип: OVA
Продолжительность: 1 эп. 30 мин.
Перевод: Русские субтитры от Gerale
Режиссер: Уэда Сигэру
Студия: Artland
Описание: Бонус к релизу Nyuu Nyuu DX Pack Premium одноимённой игры.
Информационные ссылки: AniDB || World Art || MAL
Качество: BDRip
Тип релиза: Без хардсаба
Формат видео: MP4
Наличие линковки: Нет
Релиз/Автор рипа: Ohys-Raws
Видео: x264, 8 bit, 1280х720, 1851kbps, 23.976 fps
Аудио: AAC, 208kbps, 48000Hz, 2ch Язык Японский
Субтитры: ASS (внешними файлами)
GeneralComplete name : K:\Аниме\Senran Kagura OVA [BD] [720p]\[Ohys-Raws] Senran Kagura - OVA (BD 1280x720 x264 AAC).mp4Format : MPEG-4Format profile : Base MediaCodec ID : isomFile size : 443 MiBDuration : 30mn 0sOverall bit rate mode : VariableOverall bit rate : 2 064 KbpsEncoded date : UTC 2015-05-10 09:15:45Tagged date : UTC 2015-05-10 09:15:45

VideoID : 1Format : AVCFormat/Info : Advanced Video CodecFormat profile : Main@L4.1Format settings, CABAC : YesFormat settings, ReFrames : 4 framesCodec ID : avc1Codec ID/Info : Advanced Video CodingDuration : 30mn 0sBit rate : 1 851 KbpsMaximum bit rate : 12.3 MbpsWidth : 1 280 pixelsHeight : 720 pixelsDisplay aspect ratio : 16:9Frame rate mode : ConstantFrame rate : 23.976 fpsColor space : YUVChroma subsampling : 4:2:0Bit depth : 8 bitsScan type : ProgressiveBits/(Pixel*Frame) : 0.084Stream size : 397 MiB (90%)Writing library : x264 core 146 r2538 121396cEncoding settings : cabac=1 / ref=3 / deblock=1:0:0 / analyse=0x1:0x131 / me=umh / subme=9 / psy=1 / psy_rd=1.00:0.00 / mixed_ref=1 / me_range=32 / chroma_me=1 / trellis=1 / 8x8dct=0 / cqm=0 / deadzone=21,11 / fast_pskip=1 / chroma_qp_offset=-2 / threads=12 / lookahead_threads=1 / sliced_threads=0 / nr=0 / decimate=1 / interlaced=0 / bluray_compat=0 / constrained_intra=0 / bframes=3 / b_pyramid=2 / b_adapt=1 / b_bias=0 / direct=1 / weightb=1 / open_gop=0 / weightp=2 / keyint=240 / keyint_min=1 / scenecut=40 / intra_refresh=0 / rc_lookahead=40 / rc=crf / mbtree=1 / crf=17.0 / qcomp=0.60 / qpmin=0 / qpmax=69 / qpstep=4 / ip_ratio=1.40 / aq=1:1.00Encoded date : UTC 2015-05-10 09:15:45Tagged date : UTC 2015-05-10 09:15:47

AudioID : 2Format : AACFormat/Info : Advanced Audio CodecFormat profile : LCCodec ID : 40Duration : 30mn 0sBit rate mode : VariableBit rate : 208 KbpsMaximum bit rate : 257 KbpsChannel(s) : 2 channelsChannel positions : Front: L RSampling rate : 48.0 KHzCompression mode : LossyStream size : 44.7 MiB (10%)Language : Japanese
[url]...4989357[/url] там TVrip, тут BDrip.


Трекер:  [ 14-Май-2015 13:30 ]

  

Скачать .torrent

Размер .torrent файла 18 KB


Размер: 443 MB
Хэш (hash) релиза: e5c073c8089d2a15febfb1c3db16e027a9ccb538
Подписка на обновления:

Еще никто не оставлял запись к записи скачать торрент Сенран Кагура: Летнее противостояние - Евы в купальниках Senran Kagura: Estival Versus - Mizugi Darake no Zenyasai . Будь первым!

!Обратная связь