Скачать через торрент музыку Забытый Стрелок Il pistolero dellAve Maria бесплатно без регистрации torrent

Если у вас наблюдаются проблемы со скриншотами, переходом по ссылками, скачиванием торрентов - проблемы в блокировщике рекламы AdBlock. #хорошегоДня!


Статистика раздачи
Размер:  193 MB   |    Зарегистрирован:  2 года 4 месяца   |    .torrent скачан:  52 раза   |   
Раздают:  1  
   
Загрузка...
 
Автор Сообщение

Galfimbul

avatar Galfimbul


Забытый Стрелок / Il pistolero dell'Ave Maria / Forgotten Pistolero

Жанр: Score
Композитор: Franco Micalizzi & Roberto Pregadio
Год выпуска диска: 2014
Год выпуска фильма: 1969
Страна-производитель диска: UK
Издатель (лейбл): GDM
Номер по каталогу: 4175
Аудиокодек: FLAC (*.flac)
Тип рипа: tracks+.cue
Битрейт аудио: lossless
Продолжительность: 33:03
Источник: собственный рип
Наличие сканов в содержимом раздачи: нет
Треклист:
01 Ballata Per Un Pistolero
02 Uno Sguardo Sereno
03 Senza Scampo
04 Ballata Per Un Pistolero
05 Ritorno A Casa
06 Corral De La Moreira
07 Fiato Sospeso
08 Fiesta En El Pueblo
09 Alegria Mexicana
10 Sabor De Aguardiente
11 Calle En La Noche
12 Ritorno A Casa
13 Giardini Viennesi
14 Primavera A Vienna
Exact Audio Copy V1.0 beta 3 from 29. August 2011

Отчёт EAC об извлечении, выполненном 7. мая 2015, 18:22

Franco Micalizzi & Roberto Pregadio / Il Pistolero Dell'Ave Maria

Дисковод: SlimtypeDVD A DS8A5SH Adapter: 0 ID: 0

Режим чтения : ДостоверностьИспользование точного потока : ДаОтключение кэша аудио : ДаИспользование указателей C2 : Нет

Коррекция смещения при чтении : 6Способность читать области Lead-in и Lead-out : НетЗаполнение пропущенных сэмплов тишиной : ДаУдаление блоков с тишиной в начале и конце : НетПри вычислениях CRC использовались нулевые сэмплы : ДаИнтерфейс : Встроенный Win32-интерфейс для Win NT/2000

Выходной формат : Пользовательский кодировщикВыбранный битрейт : 128 kBit/sКачество : ВысокийДобавление ID3-тега : НетУтилита сжатия : C:\Program Files (x86)\Exact Audio Copy\Flac\flac.exeДополнительные параметры : -V -8 -T "Date=%year%" -T "Genre=%genre%" %source%

TOC извлечённого CD

Трек | Старт | Длительность | Начальный сектор | Конечный сектор --------------------------------------------------------------------- 1 | 0:00.00 | 2:30.17 | 0 | 11266 2 | 2:30.17 | 1:56.62 | 11267 | 20028 3 | 4:27.04 | 1:58.16 | 20029 | 28894 4 | 6:25.20 | 3:29.11 | 28895 | 44580 5 | 9:54.31 | 1:51.19 | 44581 | 52924 6 | 11:45.50 | 3:26.22 | 52925 | 68396 7 | 15:11.72 | 1:06.61 | 68397 | 73407 8 | 16:18.58 | 1:38.18 | 73408 | 80775 9 | 17:57.01 | 2:45.58 | 80776 | 93208 10 | 20:42.59 | 1:55.63 | 93209 | 101896 11 | 22:38.47 | 1:56.61 | 101897 | 110657 12 | 24:35.33 | 2:27.21 | 110658 | 121703 13 | 27:02.54 | 2:33.73 | 121704 | 133251 14 | 29:36.52 | 3:26.62 | 133252 | 148763

Характеристики диапазона извлечения и сообщения об ошибках

Выбранный диапазон

Имя файла C:\Users\User\Desktop\Новая папка (3)\Franco Micalizzi & Roberto Pregadio - Il Pistolero Dell'Ave Maria.wav

Пиковый уровень 84.1 % Скорость извлечения 3.9 X Качество диапазона 100.0 % CRC копии B53589AE Копирование... OK

Ошибок не произошло

AccurateRip: сводка

Трек 1 : извлечено точно (доверие 1) [B8407B0A] (AR v2)Трек 2 : извлечено точно (доверие 1) [36E08404] (AR v2)Трек 3 : извлечено точно (доверие 1) [50CD4695] (AR v2)Трек 4 : извлечено точно (доверие 1) [83348D5B] (AR v2)Трек 5 : извлечено точно (доверие 1) [8EB94EFF] (AR v2)Трек 6 : извлечено точно (доверие 1) [480A679E] (AR v2)Трек 7 : извлечено точно (доверие 1) [5C17BD94] (AR v2)Трек 8 : извлечено точно (доверие 1) [BFD43C8D] (AR v2)Трек 9 : извлечено точно (доверие 1) [3997FED0] (AR v2)Трек 10 : извлечено точно (доверие 1) [DAF46E7E] (AR v2)Трек 11 : извлечено точно (доверие 1) [D82BEDB6] (AR v2)Трек 12 : извлечено точно (доверие 1) [7DC1DC76] (AR v2)Трек 13 : извлечено точно (доверие 1) [C257624F] (AR v2)Трек 14 : извлечено точно (доверие 1) [6ACA38E4] (AR v2)

Все треки извлечены точно

Конец отчёта

==== Контрольная сумма отчёта 4A290B270E2B456F50A11A9A0EF54B6F2F82E17B86D55E4D5E1D3D1B47D24F41 ====
REM GENRE SoundtrackREM DATE 1969REM DISCID CA07BF0EREM COMMENT "ExactAudioCopy v1.0b3"PERFORMER "Franco Micalizzi & Roberto Pregadio"TITLE "Il Pistolero Dell'Ave Maria"FILE "Franco Micalizzi & Roberto Pregadio - Il Pistolero Dell'Ave Maria.flac" WAVE TRACK 01 AUDIO TITLE "Ballata Per Un Pistolero" PERFORMER "Franco Micalizzi & Roberto Pregadio" FLAGS DCP INDEX 01 00:00:00 TRACK 02 AUDIO TITLE "Uno Sguardo Sereno" PERFORMER "Franco Micalizzi & Roberto Pregadio" FLAGS DCP INDEX 00 02:28:17 INDEX 01 02:30:17 TRACK 03 AUDIO TITLE "Senza Scampo" PERFORMER "Franco Micalizzi & Roberto Pregadio" FLAGS DCP INDEX 00 04:25:04 INDEX 01 04:27:04 TRACK 04 AUDIO TITLE "Ballata Per Un Pistolero II" PERFORMER "Franco Micalizzi & Roberto Pregadio" FLAGS DCP INDEX 00 06:23:20 INDEX 01 06:25:20 TRACK 05 AUDIO TITLE "Ritorno A Casa" PERFORMER "Franco Micalizzi & Roberto Pregadio" FLAGS DCP INDEX 00 09:52:31 INDEX 01 09:54:31 TRACK 06 AUDIO TITLE "Corral De La Moreira" PERFORMER "Franco Micalizzi & Roberto Pregadio" FLAGS DCP INDEX 00 11:43:50 INDEX 01 11:45:50 TRACK 07 AUDIO TITLE "Fiato Sospeso" PERFORMER "Franco Micalizzi & Roberto Pregadio" FLAGS DCP INDEX 00 15:09:72 INDEX 01 15:11:72 TRACK 08 AUDIO TITLE "Fiesta En El Pueblo" PERFORMER "Franco Micalizzi & Roberto Pregadio" FLAGS DCP INDEX 00 16:16:58 INDEX 01 16:18:58 TRACK 09 AUDIO TITLE "Allegria Mexicana" PERFORMER "Franco Micalizzi & Roberto Pregadio" FLAGS DCP INDEX 00 17:55:01 INDEX 01 17:57:01 TRACK 10 AUDIO TITLE "Sabor De Aguardiente" PERFORMER "Franco Micalizzi & Roberto Pregadio" FLAGS DCP INDEX 00 20:40:59 INDEX 01 20:42:59 TRACK 11 AUDIO TITLE "Calle En La Noche" PERFORMER "Franco Micalizzi & Roberto Pregadio" FLAGS DCP INDEX 00 22:36:47 INDEX 01 22:38:47 TRACK 12 AUDIO TITLE "Ritorno A Casa II" PERFORMER "Franco Micalizzi & Roberto Pregadio" FLAGS DCP INDEX 00 24:33:33 INDEX 01 24:35:33 TRACK 13 AUDIO TITLE "Giardini Viennesi" PERFORMER "Franco Micalizzi & Roberto Pregadio" FLAGS DCP INDEX 00 27:00:54 INDEX 01 27:02:54 TRACK 14 AUDIO TITLE "Primavera A Vienna" PERFORMER "Franco Micalizzi & Roberto Pregadio" FLAGS DCP INDEX 00 29:34:52 INDEX 01 29:36:52


Трекер:  [ 07-Май-2015 10:30 ]

  

Скачать .torrent

Размер .torrent файла 16 KB


Размер: 193 MB
Хэш (hash) релиза: 645a8f60b7a0281754b3acd9c995820bc523130b

Еще никто не оставлял запись к записи скачать торрент Забытый Стрелок Il pistolero dellAve Maria . Будь первым!

!Обратная связь