Скачать порно через торрент Gettin' Behind Gettin' Behind UnionPeer.org бесплатно онлайн HD качество

Скачать новое порно 2015, 2014 новинки через торрент UnionPeer.org

Порно торрент бесплатно ЮнионПир.орг

Если у вас наблюдаются проблемы со скриншотами, переходом по ссылками, скачиванием торрентов - проблемы в блокировщике рекламы AdBlock. #хорошегоДня!


Статистика раздачи
Размер:  950 MB   |    Зарегистрирован:  2 года 3 месяца   |    .torrent скачан:  210 раз   |   
Раздают:  1  
   
Загрузка...
 
Автор Сообщение

Galfimbul

avatar Galfimbul


Gettin'' Behind / Gettin'' Behind

Год производства: 2005 г.
Страна: USA
Жанр: Anal
Продолжительность: 01:57:22
Язык: Английский

Режиссер: Axel Braun
Студия: Digital Sin

В ролях: Maddison Knox, Tiffany Holiday, Michelle Banks, Sativa Rose, Svetlana, Luissa Rosso, Mr. Pete, Tony T., Scott Nails, Mick Blue, Ben English.

Описание: Give Axel Braun a camera, a great location and a bunch of gorgeous girls who love cock in the butt. Rest assured that the world of porn will never be the same again! Dirty little whore Tiffany Holiday shines in the first installment of this steamy new series, taking Scott Nails'' meat all the way up the pooper, while Maddison gives a stunning debut getting rammed in the ass by Tony T. in her first scene ever. Mr. Pete is the lucky bastard who gets to bone Svetlana and Sativa Rose together and if that wasn''t enough, you still have Luissa Rosso and Michelle Banks for more anal gratification! With an ensemble of asses like these, you''ll really wanna get behind!"

Качество видео: DVDRip
Формат видео: AVI
Видео: Video: Xvid 720x480 25fps 1069kbps [V: mpeg4 simple profile, yuv420p, 720x480, 1069 kb/s]
Аудио: Audio: MP3 24000Hz stereo 56kbps [A: mp3, 24000 Hz, stereo, 56 kb/s]
Формат : AVI
Формат/Информация : Audio Video Interleave
Размер файла : 950 Мбайт
Продолжительность : 1 ч. 57 м.
Общий поток : 1132 Кбит/сек

Видео
Идентификатор : 1
Формат : MPEG-4 Visual
Профиль формата : Simple@L3
Параметр BVOP формата : 2
Параметр QPel формата : Нет
Параметр GMC формата : Без точки перехода
Параметр матрицы формата : Default (H.263)
Режим смешивания : Сжатый битовый поток
Идентификатор кодека : XVID
Идентификатор кодека/Подсказка : XviD
Продолжительность : 1 ч. 57 м.
Битрейт : 1069 Кбит/сек
Ширина : 720 пикс.
Высота : 480 пикс.
Соотношение сторон : 3:2
Частота кадров : 29,970 кадр/сек
Частота кадров в оригинале : 25,000 кадр/сек
Стандарт вещания : NTSC
Цветовое пространство : YUV
Подвыборка цветности : 4:2:0
Битовая глубина : 8 бит
Тип развёртки : Прогрессивная
Метод сжатия : С потерями
Бит/(Пиксели*Кадры) : 0.103
Размер потока : 898 Мбайт (94%)
Библиотека кодирования : XviD 1.1.0 Beta2 (UTC 2005-04-04)

Аудио
Идентификатор : 0
Формат : MPEG Audio
Версия формата : Version 2
Профиль формата : Layer 3
Режим : Joint stereo
Расширение режима : Intensity Stereo + MS Stereo
Идентификатор кодека : 55
Идентификатор кодека/Подсказка : MP3
Продолжительность : 1 ч. 57 м.
Вид битрейта : Постоянный
Битрейт : 56,0 Кбит/сек
Каналы : 2 канала
Частота : 24,0 КГц
Метод сжатия : С потерями
Размер потока : 47,0 Мбайт (5%)
Выравнивание : Разделение по промежуткам
Продолжительность промежутка : 33 мс. (1,00 видеокадр)


Трекер:  [ 04-Май-2015 14:00 ]

  

Скачать .torrent

Размер .torrent файла 19 KB


Размер: 950 MB
Хэш (hash) релиза: e891e8bec21413a53240a83e3989ee91a2a66c06

Еще никто не оставлял запись к записи скачать торрент Gettin' Behind Gettin' Behind . Будь первым!

!Обратная связь