Скачать через торрент Ван-Пис One Piece бесплатно Аниме Все серии на русском torrent

Если у вас наблюдаются проблемы со скриншотами, переходом по ссылками, скачиванием торрентов - проблемы в блокировщике рекламы AdBlock. #хорошегоДня!


 
Автор Сообщение

Galfimbul

avatar Galfimbul


Ван-Пис / One Piece

Год выпуска: 1999
Страна: япония
Жанр: приключения, комедия, фэнтези, сёнэн
Продолжительность: ТВ (>456 эп. + 5 спэшлов) по 24 мин.
Озвучание: Одноголосый женский, Persona99
Перевод: Переводчик Верт, проект One-Piece
Русские субтитры: есть
ХардСаб: Нет
Две звуковые дорожки:
1. рyсский закадровый.
2. оригинал.яп.

Режиссер: Уда Коносукэ

Описание: Это было во времена, когда пираты были владыками морей.
Множество кораблей бороздили океаны, сражаясь между собой, в поисках величайшего в мире сокровища,
имя которому One Piece. Эта благодать была собрана за долгие годы приключений легендарным
пиратским капитаном, Золотым Роджером, который по праву заслужил титул Короля Пиратов.
Наш главный герой - простой парнишка по имени Манки Д. Луффи, который всегда хотел стать пиратом.
Однажды, он случайно съел один из Дьявольских фруктов, которые даруют людям нечеловеческие возможности,
и стал резиновым человеком - лучше увидеть самим.

Качество: HDTVRip [OPC-Raws]
Формат: MKV
Видео: x264, 1280x720, ~2100 Кбит/сек, 23.976 fps, 8 bit
Аудио: RU(int)-AC3 2 канала 48,0 КГц 192 kb/s. JAP - AC3 2 канала 48,0 КГц 192 kb/s
Общее
Уникальный идентификатор : 208695927759305681268909392121539357995 (0x9D015FA7CF70E2C481B49AD5DB346D2B)
Полное имя : E:\анииме с русским звуком\One Piece [1280x720]380+\680-One_Piece_TV_[Persona99](1280x720).rus.jap.mkv
Формат : Matroska
Версия формата : Version 2
Размер файла : 434 Мбайт
Продолжительность : 23 м.
Общий поток : 2562 Кбит/сек
Дата кодирования : UTC 2015-02-01 18:30:56
Программа кодирования : mkvmerge v4.0.0 ('The Stars were mine') built on Jun 6 2010 16:18:42
Библиотека кодирования : libebml v1.0.0 + libmatroska v1.0.0

Видео
Идентификатор : 1
Формат : AVC
Формат/Информация : Advanced Video Codec
Профиль формата : High@L4.1
Параметр CABAC формата : Да
Параметр ReFrames формата : 9 кадров
Идентификатор кодека : V_MPEG4/ISO/AVC
Битрейт : 2127 Кбит/сек
Ширина : 1280 пикселей
Высота : 720 пикселей
Соотношение сторон : 16:9
Режим частоты кадров : Переменный
Цветовое пространство : YUV
Субдискретизация насыщенности : 4:2:0
Битовая глубина : 8 бит
Тип развёртки : Прогрессивная
Библиотека кодирования : x264 core 133 r2334 a3ac64b
Настройки программы : cabac=1 / ref=9 / deblock=1:1:1 / analyse=0x3:0x133 / me=umh / subme=10 / psy=1 / psy_rd=1.00:0.00 / mixed_ref=1 / me_range=24 / chroma_me=1 / trellis=2 / 8x8dct=1 / cqm=0 / deadzone=21,11 / fast_pskip=1 / chroma_qp_offset=-2 / threads=3 / lookahead_threads=1 / sliced_threads=0 / nr=0 / decimate=1 / interlaced=0 / bluray_compat=0 / constrained_intra=0 / bframes=8 / b_pyramid=2 / b_adapt=2 / b_bias=0 / direct=3 / weightb=1 / open_gop=0 / weightp=2 / keyint=300 / keyint_min=29 / scenecut=40 / intra_refresh=0 / rc_lookahead=60 / rc=crf / mbtree=1 / crf=18.0 / qcomp=0.60 / qpmin=0 / qpmax=69 / qpstep=4 / ip_ratio=1.40 / aq=1:1.00
Default : Да
Forced : Нет
Коэффициенты матрицы : BT.709

Аудио #1
Идентификатор : 2
Формат : AC-3
Формат/Информация : Audio Coding 3
Расширение режима : CM (complete main)
Параметр Endianness формата : Big
Идентификатор кодека : A_AC3
Продолжительность : 23 м.
Вид битрейта : Постоянный
Битрейт : 192 Кбит/сек
Каналы : 2 канала
Расположение каналов : Front: L R
Частота : 48,0 КГц
Битовая глубина : 16 бит
Метод сжатия : С потерями
Размер потока : 32,5 Мбайт (7%)
Заголовок : Persona99
Язык : Russian
Default : Да
Forced : Нет

Аудио #2
Идентификатор : 3
Формат : AC-3
Формат/Информация : Audio Coding 3
Расширение режима : CM (complete main)
Параметр Endianness формата : Big
Идентификатор кодека : A_AC3
Продолжительность : 23 м.
Вид битрейта : Постоянный
Битрейт : 192 Кбит/сек
Каналы : 2 канала
Расположение каналов : Front: L R
Частота : 48,0 КГц
Битовая глубина : 16 бит
Метод сжатия : С потерями
Размер потока : 32,5 Мбайт (7%)
Язык : Japanese
Default : Нет
Forced : Нет

Текст #1
Идентификатор : 4
Формат : ASS
Идентификатор кодека : S_TEXT/ASS
Идентификатор кодека/Информация : Advanced Sub Station Alpha
Метод сжатия : Без потерь
Заголовок : ass
Язык : Russian
Default : Нет
Forced : Нет

Текст #2
Идентификатор : 5
Формат : UTF-8
Идентификатор кодека : S_TEXT/UTF8
Идентификатор кодека/Информация : UTF-8 Plain Text
Заголовок : srt
Язык : Russian
Default : Нет
Forced : Нет
680. В ловушке Дьявольского Фрукта! План уничтожения Дресс Роуз!
681. Награда 500 000 000 болли. Цель Усоланд!
682. Прорыв сквозь вражескую линию. Контратака Луффи!
683. Сотрясая землю! Появление Пики - гигантского Бога-Разрушителя!
Предыдущие серии тут: [url]...4106719[/url]
601-679 тут: [url]...4472344[/url]
Релиз GSGroup[url=...1278872] [/url]

Еще никто не оставлял запись к записи скачать торрент Ван-Пис One Piece . Будь первым!

!Обратная связь