Скачать порно через торрент Ashley Blue's Attention Whores 6 Осторожно Бляди 6 UnionPeer.org бесплатно онлайн HD качество

Скачать новое порно 2015, 2014 новинки через торрент UnionPeer.org

Порно торрент бесплатно ЮнионПир.орг

Если у вас наблюдаются проблемы со скриншотами, переходом по ссылками, скачиванием торрентов - проблемы в блокировщике рекламы AdBlock. #хорошегоДня!


Статистика раздачи
Размер:  554 MB   |    Зарегистрирован:  2 года 6 месяцев   |    .torrent скачан:  179 раз   |   
Раздают:  1  
   
Загрузка...
 
Автор Сообщение

Galfimbul

avatar Galfimbul


Ashley Blue''s Attention Whores 6 / Осторожно Бляди 6

Год производства: 2006 г.
Жанр: Anal Gonzo
Продолжительность: 01:13:45
Язык: Английский

Режиссер: Ashley Blue
Студия: JM Productions

В ролях: Taryn Thomas, Naudia Nyce, Ashley Blue, Sasha Knox, Tory Lane, Tiffany Rayne, Tiger

Описание: Любите нас, поклоняетесь нам. Мы делаем все эти отвратительные вещи только для того, что бы доставить вам удовольствие. Только намекните, и мы сделаем упругим ваш член. Без вашей любви и внимания мы не чувствуем себя полноценными. Мы лишь сексуальные игрушки, изготовленные для вашего развлечения.

Качество видео: DVDRip
Формат видео: AVI
Видео: Video: Xvid 512x384 25fps 986kbps [V: mpeg4 simple profile, yuv420p, 512x384, 986 kb/s]
Аудио: Audio: MP3 24000Hz stereo 56kbps [A: mp3, 24000 Hz, stereo, 56 kb/s]
Формат : AVI
Формат/Информация : Audio Video Interleave
Размер файла : 554 Мбайт
Продолжительность : 1 ч. 13 м.
Общий поток : 1049 Кбит/сек

Видео
Идентификатор : 1
Формат : MPEG-4 Visual
Профиль формата : Simple@L3
Параметр BVOP формата : 2
Параметр QPel формата : Нет
Параметр GMC формата : Без точки перехода
Параметр матрицы формата : Default (H.263)
Режим смешивания : Сжатый битовый поток
Идентификатор кодека : XVID
Идентификатор кодека/Подсказка : XviD
Продолжительность : 1 ч. 13 м.
Битрейт : 987 Кбит/сек
Ширина : 512 пикс.
Высота : 384 пикс.
Соотношение сторон : 4:3
Частота кадров : 29,970 кадр/сек
Частота кадров в оригинале : 25,000 кадр/сек
Цветовое пространство : YUV
Подвыборка цветности : 4:2:0
Битовая глубина : 8 бит
Тип развёртки : Прогрессивная
Метод сжатия : С потерями
Бит/(Пиксели*Кадры) : 0.167
Размер потока : 520 Мбайт (94%)
Библиотека кодирования : XviD 1.1.0 Beta2 (UTC 2005-04-04)

Аудио
Идентификатор : 0
Формат : MPEG Audio
Версия формата : Version 2
Профиль формата : Layer 3
Режим : Joint stereo
Расширение режима : Intensity Stereo + MS Stereo
Идентификатор кодека : 55
Идентификатор кодека/Подсказка : MP3
Продолжительность : 1 ч. 13 м.
Вид битрейта : Постоянный
Битрейт : 56,0 Кбит/сек
Каналы : 2 канала
Частота : 24,0 КГц
Метод сжатия : С потерями
Размер потока : 29,5 Мбайт (5%)
Выравнивание : Разделение по промежуткам
Продолжительность промежутка : 33 мс. (1,00 видеокадр)


Трекер:  [ 02-Май-2015 00:00 ]

  

Скачать .torrent

Размер .torrent файла 11 KB


Размер: 554 MB
Хэш (hash) релиза: 9c9fab360ec658dbdf4760d03b24518799c35363

Торренты, похожие на Ashley Blue's Attention Whores 6 Осторожно Бляди 6 скачать торрент

Форум Название Автор Размер S L Добавлен
Порно фильмы без сюжета ·· Ashley Blue's Attention Whores 6 / Осторожно Бляди 6 (Ashley Blue, JM Productions) [2006 г., Anal Gonzo, SATRip] Galfimbul 19657601421.83 GB 0 0 1432616341

07:59

26-Май-15

Еще никто не оставлял запись к записи скачать торрент Ashley Blue's Attention Whores 6 Осторожно Бляди 6 . Будь первым!

!Обратная связь