Скачать порно через торрент Jack's Teen America - Mission 17 Молодежная Америка Джека 17 UnionPeer.org бесплатно онлайн HD качество

Скачать новое порно 2015, 2014 новинки через торрент UnionPeer.org

Порно торрент бесплатно ЮнионПир.орг

Если у вас наблюдаются проблемы со скриншотами, переходом по ссылками, скачиванием торрентов - проблемы в блокировщике рекламы AdBlock. #хорошегоДня!


Статистика раздачи
Размер:  699 MB   |    Зарегистрирован:  2 года 5 месяцев   |    .torrent скачан:  287 раз   |   
Раздают:  1  
   
Загрузка...
 
Автор Сообщение

Galfimbul

avatar Galfimbul


Jack''s Teen America - Mission 17 / Молодежная Америка Джека 17

Год производства: 2007 г.
Жанр: Anal, Gonzo
Продолжительность: 01:42:33
Язык: Английский

Режиссер: Robby D
Студия: Digital Playground

В ролях: Jana Cova. Lacie Heart. Michelle B. Holly Wellin. Scott Nails. Riley Mason. Holly Morgan. Jerry

Описание: With six lovely ladies competing for the same title, it''s a tight race to the finish and Digital Playground contract stars, Jana Cova and Lacie Heart, are off to a succulent start.

Качество видео: DVDRip
Формат видео: AVI
Видео: Video: Xvid 512x288 29.97fps 821kbps [V: mpeg4 advanced simple profile, yuv420p, 512x288, 821 kb/s]
Аудио: Audio: MP3 48000Hz stereo 116kbps [A: mp3, 48000 Hz, stereo, 116 kb/s]
Формат : AVI
Формат/Информация : Audio Video Interleave
Размер файла : 699 Мбайт
Продолжительность : 1 ч. 42 м.
Общий поток : 953 Кбит/сек
Программа кодирования : VirtualDubMod 1.5.10.1 (build 2439/release)
Библиотека кодирования : VirtualDubMod build 2439/release

Видео
Идентификатор : 0
Формат : MPEG-4 Visual
Профиль формата : Advanced Simple@L5
Параметр BVOP формата : 2
Параметр QPel формата : Нет
Параметр GMC формата : Без точки перехода
Параметр матрицы формата : Default (H.263)
Режим смешивания : Сжатый битовый поток
Идентификатор кодека : XVID
Идентификатор кодека/Подсказка : XviD
Продолжительность : 1 ч. 42 м.
Битрейт : 822 Кбит/сек
Ширина : 512 пикс.
Высота : 288 пикс.
Соотношение сторон : 16:9
Частота кадров : 29,970 кадр/сек
Цветовое пространство : YUV
Подвыборка цветности : 4:2:0
Битовая глубина : 8 бит
Тип развёртки : Прогрессивная
Метод сжатия : С потерями
Бит/(Пиксели*Кадры) : 0.186
Размер потока : 603 Мбайт (86%)
Библиотека кодирования : XviD 1.0.3 (UTC 2004-12-20)

Аудио
Идентификатор : 1
Формат : MPEG Audio
Версия формата : Version 1
Профиль формата : Layer 3
Режим : Joint stereo
Расширение режима : MS Stereo
Идентификатор кодека : 55
Идентификатор кодека/Подсказка : MP3
Продолжительность : 1 ч. 42 м.
Вид битрейта : Переменный
Битрейт : 117 Кбит/сек
Номинальный битрейт : 128 Кбит/сек
Каналы : 2 канала
Частота : 48,0 КГц
Метод сжатия : С потерями
Размер потока : 85,8 Мбайт (12%)
Выравнивание : Соединение по промежуткам
Продолжительность промежутка : 24 мс. (0,72 видеокадр)
Время предзагрузки промежутка : 508 ms
Библиотека кодирования : LAME3.90.
Настройки программы : -m j -V 0 -q 5 -lowpass 15.3 --abr 128


Трекер:  [ 01-Май-2015 10:30 ]

  

Скачать .torrent

Размер .torrent файла 14 KB


Размер: 699 MB
Хэш (hash) релиза: 6af12d426648b410cbf59c1fc27ee2fcc7c929ce

Еще никто не оставлял запись к записи скачать торрент Jack's Teen America - Mission 17 Молодежная Америка Джека 17 . Будь первым!

!Обратная связь