Скачать через торрент музыку Стражи Галактики Guardians of the Galaxy бесплатно без регистрации torrent

Если у вас наблюдаются проблемы со скриншотами, переходом по ссылками, скачиванием торрентов - проблемы в блокировщике рекламы AdBlock. #хорошегоДня!


Статистика раздачи
Размер:  990 MB   |    Зарегистрирован:  2 года 4 месяца   |    .torrent скачан:  87 раз   |   
Раздают:  1  
   
Загрузка...
 
Автор Сообщение

Galfimbul

avatar Galfimbul



Guardians of the Galaxy: Awesome Mix Vol. 1
+ Original Motion Picture Score by Tyler Bates
Жанр: Score/Soundtrack / Страна: USA / Год издания: 2014 / Аудио кодек: FLAC (*.flac)
Битрейт аудио: lossless / Тип рипа: tracks+.cue / Источник: what.cd / Продолжительность: 02:34:40
Треклист:01. Blue Swede - Hooked On a Feeling (02:54)
02. Raspberries - Go All the Way (03:22)
03. Norman Greenbaum - Spirit in the Sky (04:03)
04. David Bowie - Moonage Daydream (04:42)
05. Elvin Bishop - Fooled Around and Fell in Love (04:37)
06. 10cc - I'm Not in Love (06:04)
07. Jackson 5 - I Want You Back (03:00)
08. Redbone - Come and Get Your Love (03:28)
09. The Runaways - Cherry Bomb (02:19)
10. Rupert Holmes - Escape (The Piña Colada Song) (04:38)
11. The Five Stairsteps - O-o-h Child (03:15)
12. Marvin Gaye and Tammi Terrell - Ain't No Mountain High Enough (02:29)
_____________________________
Exact Audio Copy V1.0 beta 3 from 29. August 2011

EAC extraction logfile from 2. August 2014, 19:58

Various / Guardians of the Galaxy: Awesome Mix Vol. 1

Used drive : TSSTcorpDVDWBD SH-B123L Adapter: 2 ID: 0

Read mode : SecureUtilize accurate stream : YesDefeat audio cache : YesMake use of C2 pointers : No

Read offset correction : 6Overread into Lead-In and Lead-Out : NoFill up missing offset samples with silence : YesDelete leading and trailing silent blocks : NoNull samples used in CRC calculations : YesUsed interface : Native Win32 interface for Win NT & 2000Gap handling : Appended to previous track

Used output format : User Defined EncoderSelected bitrate : 128 kBit/sQuality : HighAdd ID3 tag : NoCommand line compressor : C:\Program Files (x86)\Exact Audio Copy\Flac\flac.exeAdditional command line options : -8 -V -T "ARTIST=%artist%" -T "TITLE=%title%" -T "ALBUM=%albumtitle%" -T "DATE=%year%" -T "TRACKNUMBER=%tracknr%" -T "GENRE=%genre%" -T "PERFORMER=%albuminterpret%" -T "COMPOSER=%composer%" %haslyrics%--tag-from-file=LYRICS="%lyricsfile%"%haslyrics% -T "ALBUMARTIST=%albumartist%" -T "DISCNUMBER=%cdnumber%" -T "TOTALDISCS=%totalcds%" -T "TOTALTRACKS=%numtracks%" -T "COMMENT=%comment%" %source% -o %dest%

TOC of the extracted CD

Track | Start | Length | Start sector | End sector --------------------------------------------------------- 1 | 0:00.00 | 2:54.23 | 0 | 13072 2 | 2:54.23 | 3:22.59 | 13073 | 28281 3 | 6:17.07 | 4:03.60 | 28282 | 46566 4 | 10:20.67 | 4:42.58 | 46567 | 67774 5 | 15:03.50 | 4:37.12 | 67775 | 88561 6 | 19:40.62 | 6:04.74 | 88562 | 115935 7 | 25:45.61 | 3:00.34 | 115936 | 129469 8 | 28:46.20 | 3:28.19 | 129470 | 145088 9 | 32:14.39 | 2:19.45 | 145089 | 155558 10 | 34:34.09 | 4:38.61 | 155559 | 176469 11 | 39:12.70 | 3:15.45 | 176470 | 191139 12 | 42:28.40 | 2:29.01 | 191140 | 202315 13 | 47:29.41 | 6:01.59 | 213716 | 240849

Track 1

Filename C:\Music\Various Artists\GOTG - Awesome Mix Vol. 1 FLAC\01 - Blue Swede - Hooked On a Feeling.wav

Pre-gap length 0:00:02.00

Peak level 94.3 % Extraction speed 1.8 X Track quality 99.9 % Test CRC 5CD71677 Copy CRC 5CD71677 Accurately ripped (confidence 1) [185F9D3B] (AR v2) Copy OK

Track 2

Filename C:\Music\Various Artists\GOTG - Awesome Mix Vol. 1 FLAC\02 - Raspberries - Go All the Way.wav

Pre-gap length 0:00:01.64

Peak level 94.4 % Extraction speed 2.3 X Track quality 100.0 % Test CRC 7C06CDCF Copy CRC 7C06CDCF Accurately ripped (confidence 1) [92C61708] (AR v2) Copy OK

Track 3

Filename C:\Music\Various Artists\GOTG - Awesome Mix Vol. 1 FLAC\03 - Norman Greenbaum - Spirit in the Sky.wav

Pre-gap length 0:00:01.64

Peak level 94.3 % Extraction speed 2.6 X Track quality 100.0 % Test CRC 99E99A7F Copy CRC 99E99A7F Accurately ripped (confidence 1) [677909DA] (AR v2) Copy OK

Track 4

Filename C:\Music\Various Artists\GOTG - Awesome Mix Vol. 1 FLAC\04 - David Bowie - Moonage Daydream.wav

Pre-gap length 0:00:01.64

Peak level 94.9 % Extraction speed 2.8 X Track quality 100.0 % Test CRC 86A7E7BC Copy CRC 86A7E7BC Accurately ripped (confidence 1) [119F499C] (AR v2) Copy OK

Track 5

Filename C:\Music\Various Artists\GOTG - Awesome Mix Vol. 1 FLAC\05 - Elvin Bishop - Fooled Around and Fell in Love.wav

Pre-gap length 0:00:01.64

Peak level 94.4 % Extraction speed 3.0 X Track quality 100.0 % Test CRC A9A1E05A Copy CRC A9A1E05A Accurately ripped (confidence 1) [CB755A10] (AR v2) Copy OK

Track 6

Filename C:\Music\Various Artists\GOTG - Awesome Mix Vol. 1 FLAC\06 - 10cc - I'm Not in Love.wav

Pre-gap length 0:00:01.64

Peak level 94.4 % Extraction speed 3.3 X Track quality 100.0 % Test CRC 1F842779 Copy CRC 1F842779 Accurately ripped (confidence 1) [8E8FC798] (AR v2) Copy OK

Track 7

Filename C:\Music\Various Artists\GOTG - Awesome Mix Vol. 1 FLAC\07 - Jackson 5 - I Want You Back.wav

Pre-gap length 0:00:01.64

Peak level 94.4 % Extraction speed 3.2 X Track quality 100.0 % Test CRC DCC74E2A Copy CRC DCC74E2A Accurately ripped (confidence 1) [C75571AC] (AR v2) Copy OK

Track 8

Filename C:\Music\Various Artists\GOTG - Awesome Mix Vol. 1 FLAC\08 - Redbone - Come and Get Your Love.wav

Pre-gap length 0:00:01.64

Peak level 94.4 % Extraction speed 3.4 X Track quality 100.0 % Test CRC EA7458DB Copy CRC EA7458DB Accurately ripped (confidence 1) [765F0556] (AR v2) Copy OK

Track 9

Filename C:\Music\Various Artists\GOTG - Awesome Mix Vol. 1 FLAC\09 - The Runaways - Cherry Bomb.wav

Pre-gap length 0:00:01.64

Peak level 94.9 % Extraction speed 3.3 X Track quality 100.0 % Test CRC DB09FDDE Copy CRC DB09FDDE Accurately ripped (confidence 1) [ED4C1C91] (AR v2) Copy OK

Track 10

Filename C:\Music\Various Artists\GOTG - Awesome Mix Vol. 1 FLAC\10 - Rupert Holmes - Escape (The Piña Colada Song).wav

Pre-gap length 0:00:01.72

Peak level 94.4 % Extraction speed 3.8 X Track quality 100.0 % Test CRC 876D940F Copy CRC 876D940F Accurately ripped (confidence 1) [7898EF26] (AR v2) Copy OK

Track 11

Filename C:\Music\Various Artists\GOTG - Awesome Mix Vol. 1 FLAC\11 - The Five Stairsteps - O-o-h Child.wav

Pre-gap length 0:00:01.64

Peak level 94.4 % Extraction speed 3.7 X Track quality 100.0 % Test CRC DE2C64FA Copy CRC DE2C64FA Accurately ripped (confidence 1) [CE3709D3] (AR v2) Copy OK

Track 12

Filename C:\Music\Various Artists\GOTG - Awesome Mix Vol. 1 FLAC\12 - Marvin Gaye and Tammi Terrell - Ain't No Mountain High Enough.wav

Pre-gap length 0:00:01.64

Peak level 94.4 % Extraction speed 3.6 X Track quality 100.0 % Test CRC 75F60BA8 Copy CRC 75F60BA8 Accurately ripped (confidence 1) [34C144A7] (AR v2) Copy OK

All tracks accurately ripped

No errors occurred

End of status report

==== Log checksum 10B3FAD58FC088056245B33AAF11E29978FFDB7C31935657411CD5A7711F289C ====
REM GENRE SoundtrackREM DATE 2014REM DISCID B60C8B0DREM COMMENT "ExactAudioCopy v1.0b3"CATALOG 0050087310851PERFORMER "Various"TITLE "Guardians of the Galaxy: Awesome Mix Vol. 1"FILE "01 - Blue Swede - Hooked On a Feeling.wav" WAVE TRACK 01 AUDIO TITLE "Hooked On a Feeling" PERFORMER "Blue Swede" ISRC SEAMA7343050 INDEX 01 00:00:00 TRACK 02 AUDIO TITLE "Go All the Way" PERFORMER "Raspberries" ISRC USCA29901186 INDEX 00 02:52:50FILE "02 - Raspberries - Go All the Way.wav" WAVE INDEX 01 00:00:00 TRACK 03 AUDIO TITLE "Spirit in the Sky" PERFORMER "Norman Greenbaum" ISRC USWD10524718 INDEX 00 03:21:11FILE "03 - Norman Greenbaum - Spirit in the Sky.wav" WAVE INDEX 01 00:00:00 TRACK 04 AUDIO TITLE "Moonage Daydream" PERFORMER "David Bowie" ISRC USJT11200003 INDEX 00 04:02:12FILE "04 - David Bowie - Moonage Daydream.wav" WAVE INDEX 01 00:00:00 TRACK 05 AUDIO TITLE "Fooled Around and Fell in Love" PERFORMER "Elvin Bishop" ISRC USPR37600038 INDEX 00 04:41:10FILE "05 - Elvin Bishop - Fooled Around and Fell in Love.wav" WAVE INDEX 01 00:00:00 TRACK 06 AUDIO TITLE "I'm Not in Love" PERFORMER "10cc" ISRC GBF087500001 INDEX 00 04:35:39FILE "06 - 10cc - I'm Not in Love.wav" WAVE INDEX 01 00:00:00 TRACK 07 AUDIO TITLE "I Want You Back" PERFORMER "Jackson 5" ISRC USMO19400306 INDEX 00 06:03:26FILE "07 - Jackson 5 - I Want You Back.wav" WAVE INDEX 01 00:00:00 TRACK 08 AUDIO TITLE "Come and Get Your Love" PERFORMER "Redbone" ISRC USSM17300653 INDEX 00 02:58:61FILE "08 - Redbone - Come and Get Your Love.wav" WAVE INDEX 01 00:00:00 TRACK 09 AUDIO TITLE "Cherry Bomb" PERFORMER "The Runaways" ISRC USIR20200576 INDEX 00 03:26:46FILE "09 - The Runaways - Cherry Bomb.wav" WAVE INDEX 01 00:00:00 TRACK 10 AUDIO TITLE "Escape (The Piсa Colada Song)" PERFORMER "Rupert Holmes" ISRC USMC17948997 INDEX 00 02:17:66FILE "10 - Rupert Holmes - Escape (The Piсa Colada Song).wav" WAVE INDEX 01 00:00:00 TRACK 11 AUDIO TITLE "O-o-h Child" PERFORMER "The Five Stairsteps" ISRC USBR10100127 INDEX 00 04:37:13FILE "11 - The Five Stairsteps - O-o-h Child.wav" WAVE INDEX 01 00:00:00 TRACK 12 AUDIO TITLE "Ain't No Mountain High Enough" PERFORMER "Marvin Gaye and Tammi Terrell" ISRC USMO16700486 INDEX 00 03:13:72FILE "12 - Marvin Gaye and Tammi Terrell - Ain't No Mountain High Enough.wav" WAVE INDEX 01 00:00:00 TRACK 13 MODEx/2xxx TITLE "Track13" PERFORMER "Various" INDEX 00 02:29:01
Треклист:Disc 1
01. Blue Swede - Hooked On A Feeling (02:54)
02. Raspberries - Go All The Way (03:22)
03. Norman Greenbaum - Spirit in the Sky (04:03)
04. David Bowie - Moonage Daydream (04:42)
05. Elvin Bishop - Fooled Around And Fell In Love (04:37)
06. 10CC - I'm Not In Love (06:04)
07. Jackson 5 - I Want You Back (03:00)
08. Redbone - Come And Get Your Love (03:28)
09. The Runaways - Cherry Bomb (02:19)
10. Rupert Holmes - Escape (The Pina Colada Song) (04:38)
11. The Five Stairsteps - O-O-H Child (03:15)
12. Marvin Gaye And Tammi Terrell - Ain't No Mountain High Enough (02:29)

Disc 2
01. Tyler Bates - Morag (01:58)
02. Tyler Bates - The Final Battle Begins (04:21)
03. Tyler Bates - Plasma Ball (01:18)
04. Tyler Bates - Quill's Big Retreat (01:38)
05. Tyler Bates - To the Stars (02:52)
06. Tyler Bates - Ronan's Theme (02:24)
07. Tyler Bates - Everyone's an Idiot (01:26)
08. Tyler Bates - What a Bunch of A-Holes (02:14)
09. Tyler Bates - Busted (01:34)
10. Tyler Bates - The New Meat (00:36)
11. Tyler Bates - The Destroyer (01:27)
12. Tyler Bates - Sanctuary (02:26)
13. Tyler Bates - The Kyln Escape (07:23)
14. Tyler Bates - Don't Mess with My Walkman (00:44)
15. Tyler Bates - The Great Companion (00:51)
16. Tyler Bates - The Road to Knowhere (00:37)
17. Tyler Bates - The Collector (03:20)
18. Tyler Bates - Ronan's Arrival (00:56)
19. Tyler Bates - The Pod Chase (03:56)
20. Tyler Bates - Sacrifice (03:20)
21. Tyler Bates - We All Got Dead People (01:46)
22. Tyler Bates - The Ballad of the Nova Corps. (Instrumental) (01:48)
23. Tyler Bates - Groot Spores (01:11)
24. Tyler Bates - Guardians United (02:46)
25. Tyler Bates - The Big Blast (03:05)
26. Tyler Bates - Groot Cocoon (02:29)
27. Tyler Bates - Black Tears (02:43)
28. Tyler Bates - Citizens Unite (01:15)
29. Tyler Bates - A Nova Upgrade (02:10)
_____________________________
[spoiler="Лог создания рипа [Disc 1]"]

Exact Audio Copy V1.0 beta 6 from 9. April 2015

EAC extraction logfile from 20. April 2015, 4:17

Various / Guardians Of The Galaxy [Deluxe Editon] (Disc 1: Awesome Mix Vol.1)

Used drive : TSSTcorpBDDVDW SE-506CB Adapter: 1 ID: 1

Read mode : SecureUtilize accurate stream : YesDefeat audio cache : YesMake use of C2 pointers : No

Read offset correction : 6Overread into Lead-In and Lead-Out : NoFill up missing offset samples with silence : YesDelete leading and trailing silent blocks : NoNull samples used in CRC calculations : YesUsed interface : Native Win32 interface for Win NT & 2000Gap handling : Appended to previous track

Used output format : User Defined EncoderSelected bitrate : 1024 kBit/sQuality : HighAdd ID3 tag : NoCommand line compressor : C:\Program Files (x86)\Exact Audio Copy\FLAC\FLAC.EXEAdditional command line options : -8 -V -T "ARTIST=%artist%" -T "TITLE=%title%" -T "ALBUM=%albumtitle%" -T "DATE=%year%" -T "TRACKNUMBER=%tracknr%" -T "GENRE=%genre%" -T "PERFORMER=%albuminterpret%" -T "COMPOSER=%composer%" %haslyrics%--tag-from-file=LYRICS="%lyricsfile%"%haslyrics% -T "ALBUMARTIST=%albumartist%" -T "DISCNUMBER=%cdnumber%" -T "TOTALDISCS=%totalcds%" -T "TOTALTRACKS=%numtracks%" -T "COMMENT=%comment%" %source% -o %dest%

TOC of the extracted CD

Track | Start | Length | Start sector | End sector --------------------------------------------------------- 1 | 0:00.00 | 2:54.23 | 0 | 13072 2 | 2:54.23 | 3:22.59 | 13073 | 28281 3 | 6:17.07 | 4:03.60 | 28282 | 46566 4 | 10:20.67 | 4:42.58 | 46567 | 67774 5 | 15:03.50 | 4:37.12 | 67775 | 88561 6 | 19:40.62 | 6:04.74 | 88562 | 115935 7 | 25:45.61 | 3:00.34 | 115936 | 129469 8 | 28:46.20 | 3:28.19 | 129470 | 145088 9 | 32:14.39 | 2:19.45 | 145089 | 155558 10 | 34:34.09 | 4:38.61 | 155559 | 176469 11 | 39:12.70 | 3:15.45 | 176470 | 191139 12 | 42:28.40 | 2:29.01 | 191140 | 202315 13 | 47:29.41 | 6:02.50 | 213716 | 240915

Track 1

Filename F:\My Storage\What.cd Uploads\Various Artists - Guardians of the Galaxy (2014) {Deluxe Edition Soundtrack} [FLAC]\Disc 1 (Awesome Mix Vol. 1)\01 - Blue Swede - Hooked On A Feeling.wav

Pre-gap length 0:00:02.00

Peak level 94.3 % Extraction speed 0.9 X Track quality 99.9 % Test CRC 5CD71677 Copy CRC 5CD71677 Accurately ripped (confidence 30) [185F9D3B] (AR v2) Copy OK

Track 2

Filename F:\My Storage\What.cd Uploads\Various Artists - Guardians of the Galaxy (2014) {Deluxe Edition Soundtrack} [FLAC]\Disc 1 (Awesome Mix Vol. 1)\02 - Raspberries - Go All The Way.wav

Pre-gap length 0:00:01.64

Peak level 94.4 % Extraction speed 0.8 X Track quality 99.8 % Test CRC 7C06CDCF Copy CRC 7C06CDCF Accurately ripped (confidence 30) [92C61708] (AR v2) Copy OK

Track 3

Filename F:\My Storage\What.cd Uploads\Various Artists - Guardians of the Galaxy (2014) {Deluxe Edition Soundtrack} [FLAC]\Disc 1 (Awesome Mix Vol. 1)\03 - Norman Greenbaum - Spirit in the Sky.wav

Pre-gap length 0:00:01.64

Peak level 94.3 % Extraction speed 1.3 X Track quality 99.9 % Test CRC 99E99A7F Copy CRC 99E99A7F Accurately ripped (confidence 30) [677909DA] (AR v2) Copy OK

Track 4

Filename F:\My Storage\What.cd Uploads\Various Artists - Guardians of the Galaxy (2014) {Deluxe Edition Soundtrack} [FLAC]\Disc 1 (Awesome Mix Vol. 1)\04 - David Bowie - Moonage Daydream.wav

Pre-gap length 0:00:01.64

Peak level 94.9 % Extraction speed 1.6 X Track quality 99.8 % Test CRC 86A7E7BC Copy CRC 86A7E7BC Accurately ripped (confidence 30) [119F499C] (AR v2) Copy OK

Track 5

Filename F:\My Storage\What.cd Uploads\Various Artists - Guardians of the Galaxy (2014) {Deluxe Edition Soundtrack} [FLAC]\Disc 1 (Awesome Mix Vol. 1)\05 - Elvin Bishop - Fooled Around And Fell In Love.wav

Pre-gap length 0:00:01.64

Peak level 94.4 % Extraction speed 1.3 X Track quality 99.8 % Test CRC A9A1E05A Copy CRC A9A1E05A Accurately ripped (confidence 30) [CB755A10] (AR v2) Copy OK

Track 6

Filename F:\My Storage\What.cd Uploads\Various Artists - Guardians of the Galaxy (2014) {Deluxe Edition Soundtrack} [FLAC]\Disc 1 (Awesome Mix Vol. 1)\06 - 10CC - I'm Not In Love.wav

Pre-gap length 0:00:01.64

Peak level 94.4 % Extraction speed 3.1 X Track quality 99.9 % Test CRC 1F842779 Copy CRC 1F842779 Accurately ripped (confidence 30) [8E8FC798] (AR v2) Copy OK

Track 7

Filename F:\My Storage\What.cd Uploads\Various Artists - Guardians of the Galaxy (2014) {Deluxe Edition Soundtrack} [FLAC]\Disc 1 (Awesome Mix Vol. 1)\07 - Jackson 5 - I Want You Back.wav

Pre-gap length 0:00:01.64

Peak level 94.4 % Extraction speed 1.7 X Track quality 99.9 % Test CRC DCC74E2A Copy CRC DCC74E2A Accurately ripped (confidence 30) [C75571AC] (AR v2) Copy OK

Track 8

Filename F:\My Storage\What.cd Uploads\Various Artists - Guardians of the Galaxy (2014) {Deluxe Edition Soundtrack} [FLAC]\Disc 1 (Awesome Mix Vol. 1)\08 - Redbone - Come And Get Your Love.wav

Pre-gap length 0:00:01.64

Peak level 94.4 % Extraction speed 2.7 X Track quality 100.0 % Test CRC EA7458DB Copy CRC EA7458DB Accurately ripped (confidence 30) [765F0556] (AR v2) Copy OK

Track 9

Filename F:\My Storage\What.cd Uploads\Various Artists - Guardians of the Galaxy (2014) {Deluxe Edition Soundtrack} [FLAC]\Disc 1 (Awesome Mix Vol. 1)\09 - The Runaways - Cherry Bomb.wav

Pre-gap length 0:00:01.64

Peak level 94.9 % Extraction speed 1.6 X Track quality 99.8 % Test CRC DB09FDDE Copy CRC DB09FDDE Accurately ripped (confidence 30) [ED4C1C91] (AR v2) Copy OK

Track 10

Filename F:\My Storage\What.cd Uploads\Various Artists - Guardians of the Galaxy (2014) {Deluxe Edition Soundtrack} [FLAC]\Disc 1 (Awesome Mix Vol. 1)\10 - Rupert Holmes - Escape (The Pina Colada Song).wav

Pre-gap length 0:00:01.72

Peak level 94.4 % Extraction speed 1.7 X Track quality 99.8 % Test CRC 876D940F Copy CRC 876D940F Accurately ripped (confidence 30) [7898EF26] (AR v2) Copy OK

Track 11

Filename F:\My Storage\What.cd Uploads\Various Artists - Guardians of the Galaxy (2014) {Deluxe Edition Soundtrack} [FLAC]\Disc 1 (Awesome Mix Vol. 1)\11 - The Five Stairsteps - O-O-H Child.wav

Pre-gap length 0:00:01.64

Peak level 94.4 % Extraction speed 1.5 X Track quality 99.7 % Test CRC DE2C64FA Copy CRC DE2C64FA Accurately ripped (confidence 30) [CE3709D3] (AR v2) Copy OK

Track 12

Filename F:\My Storage\What.cd Uploads\Various Artists - Guardians of the Galaxy (2014) {Deluxe Edition Soundtrack} [FLAC]\Disc 1 (Awesome Mix Vol. 1)\12 - Marvin Gaye And Tammi Terrell - Ain't No Mountain High Enough.wav

Pre-gap length 0:00:01.64

Peak level 94.4 % Extraction speed 1.9 X Track quality 99.8 % Test CRC 75F60BA8 Copy CRC 75F60BA8 Accurately ripped (confidence 30) [34C144A7] (AR v2) Copy OK

All tracks accurately ripped

No errors occurred

End of status report

---- CUETools DB Plugin V2.1.6

[CTDB TOCID: ny2wN9e1DSAA_c3wuEbkSeWY7_k-] foundSubmit result: ny2wN9e1DSAA_c3wuEbkSeWY7_k- has been confirmedTrack | CTDB Status 1 | (601/603) Accurately ripped 2 | (600/603) Accurately ripped 3 | (601/603) Accurately ripped 4 | (601/603) Accurately ripped 5 | (601/603) Accurately ripped 6 | (601/603) Accurately ripped 7 | (601/603) Accurately ripped 8 | (601/603) Accurately ripped 9 | (599/603) Accurately ripped 10 | (599/603) Accurately ripped 11 | (597/603) Accurately ripped, or (3/603) differs in 3 samples @00:37:15 12 | (598/603) Accurately ripped

==== Log checksum B85385A66D3B49EDB53DF474D302E9922987A38E3F6EDDAAED077B055DFEB5FE ====
[spoiler="Лог создания рипа [Disc 2]"]

Exact Audio Copy V1.0 beta 6 from 9. April 2015

EAC extraction logfile from 20. April 2015, 11:30

Tyler Bates / Guardians of the Galaxy [Deluxe Edition] (Disc 2: Original Score)

Used drive : TSSTcorpBDDVDW SE-506CB Adapter: 1 ID: 1

Read mode : SecureUtilize accurate stream : YesDefeat audio cache : YesMake use of C2 pointers : No

Read offset correction : 6Overread into Lead-In and Lead-Out : NoFill up missing offset samples with silence : YesDelete leading and trailing silent blocks : NoNull samples used in CRC calculations : YesUsed interface : Native Win32 interface for Win NT & 2000Gap handling : Appended to previous track

Used output format : User Defined EncoderSelected bitrate : 1024 kBit/sQuality : HighAdd ID3 tag : NoCommand line compressor : C:\Program Files (x86)\Exact Audio Copy\FLAC\FLAC.EXEAdditional command line options : -8 -V -T "ARTIST=%artist%" -T "TITLE=%title%" -T "ALBUM=%albumtitle%" -T "DATE=%year%" -T "TRACKNUMBER=%tracknr%" -T "GENRE=%genre%" -T "PERFORMER=%albuminterpret%" -T "COMPOSER=%composer%" %haslyrics%--tag-from-file=LYRICS="%lyricsfile%"%haslyrics% -T "ALBUMARTIST=%albumartist%" -T "DISCNUMBER=%cdnumber%" -T "TOTALDISCS=%totalcds%" -T "TOTALTRACKS=%numtracks%" -T "COMMENT=%comment%" %source% -o %dest%

TOC of the extracted CD

Track | Start | Length | Start sector | End sector --------------------------------------------------------- 1 | 0:00.00 | 1:58.30 | 0 | 8879 2 | 1:58.30 | 4:21.50 | 8880 | 28504 3 | 6:20.05 | 1:18.56 | 28505 | 34410 4 | 7:38.61 | 1:38.30 | 34411 | 41790 5 | 9:17.16 | 2:52.03 | 41791 | 54693 6 | 12:09.19 | 2:24.20 | 54694 | 65513 7 | 14:33.39 | 1:26.64 | 65514 | 72027 8 | 16:00.28 | 2:14.45 | 72028 | 82122 9 | 18:14.73 | 1:34.15 | 82123 | 89187 10 | 19:49.13 | 0:36.02 | 89188 | 91889 11 | 20:25.15 | 1:27.06 | 91890 | 98420 12 | 21:52.21 | 2:26.14 | 98421 | 109384 13 | 24:18.35 | 7:23.11 | 109385 | 142620 14 | 31:41.46 | 0:44.49 | 142621 | 145969 15 | 32:26.20 | 0:51.18 | 145970 | 149812 16 | 33:17.38 | 0:37.42 | 149813 | 152629 17 | 33:55.05 | 3:20.58 | 152630 | 167687 18 | 37:15.63 | 0:56.27 | 167688 | 171914 19 | 38:12.15 | 3:56.28 | 171915 | 189642 20 | 42:08.43 | 3:20.10 | 189643 | 204652 21 | 45:28.53 | 1:46.12 | 204653 | 212614 22 | 47:14.65 | 1:48.46 | 212615 | 220760 23 | 49:03.36 | 1:11.71 | 220761 | 226156 24 | 50:15.32 | 2:46.15 | 226157 | 238621 25 | 53:01.47 | 3:05.21 | 238622 | 252517 26 | 56:06.68 | 2:29.24 | 252518 | 263716 27 | 58:36.17 | 2:43.17 | 263717 | 275958 28 | 61:19.34 | 1:15.26 | 275959 | 281609 29 | 62:34.60 | 2:10.31 | 281610 | 291390

Track 1

Filename F:\My Storage\What.cd Uploads\Various Artists - Guardians of the Galaxy (2014) {Deluxe Edition Soundtrack} [FLAC]\Disc 2 (Original Score By Tyler Bates)\01 - Morag.wav

Pre-gap length 0:00:02.00

Peak level 78.1 % Extraction speed 1.1 X Track quality 100.0 % Test CRC CDCC9287 Copy CRC CDCC9287 Accurately ripped (confidence 63) [AF9A24FD] (AR v2) Copy OK

Track 2

Filename F:\My Storage\What.cd Uploads\Various Artists - Guardians of the Galaxy (2014) {Deluxe Edition Soundtrack} [FLAC]\Disc 2 (Original Score By Tyler Bates)\02 - The Final Battle Begins.wav

Peak level 100.0 % Extraction speed 1.3 X Track quality 100.0 % Test CRC 7349FA14 Copy CRC 7349FA14 Accurately ripped (confidence 63) [0F6FC977] (AR v2) Copy OK

Track 3

Filename F:\My Storage\What.cd Uploads\Various Artists - Guardians of the Galaxy (2014) {Deluxe Edition Soundtrack} [FLAC]\Disc 2 (Original Score By Tyler Bates)\03 - Plasma Ball.wav

Peak level 99.4 % Extraction speed 1.1 X Track quality 100.0 % Test CRC BBEB5111 Copy CRC BBEB5111 Accurately ripped (confidence 63) [84F3C0FC] (AR v2) Copy OK

Track 4

Filename F:\My Storage\What.cd Uploads\Various Artists - Guardians of the Galaxy (2014) {Deluxe Edition Soundtrack} [FLAC]\Disc 2 (Original Score By Tyler Bates)\04 - Quill's Big Retreat.wav

Peak level 100.0 % Extraction speed 1.2 X Track quality 100.0 % Test CRC F6D6F2D1 Copy CRC F6D6F2D1 Accurately ripped (confidence 63) [E4893EAF] (AR v2) Copy OK

Track 5

Filename F:\My Storage\What.cd Uploads\Various Artists - Guardians of the Galaxy (2014) {Deluxe Edition Soundtrack} [FLAC]\Disc 2 (Original Score By Tyler Bates)\05 - To the Stars.wav

Peak level 86.5 % Extraction speed 1.4 X Track quality 100.0 % Test CRC D5620107 Copy CRC D5620107 Accurately ripped (confidence 63) [64EEE9E9] (AR v2) Copy OK

Track 6

Filename F:\My Storage\What.cd Uploads\Various Artists - Guardians of the Galaxy (2014) {Deluxe Edition Soundtrack} [FLAC]\Disc 2 (Original Score By Tyler Bates)\06 - Ronan's Theme.wav

Peak level 100.0 % Extraction speed 1.4 X Track quality 100.0 % Test CRC 904675B6 Copy CRC 904675B6 Accurately ripped (confidence 63) [35464C3C] (AR v2) Copy OK

Track 7

Filename F:\My Storage\What.cd Uploads\Various Artists - Guardians of the Galaxy (2014) {Deluxe Edition Soundtrack} [FLAC]\Disc 2 (Original Score By Tyler Bates)\07 - Everyone's an Idiot.wav

Peak level 99.1 % Extraction speed 1.2 X Track quality 100.0 % Test CRC B511EFC8 Copy CRC B511EFC8 Accurately ripped (confidence 63) [1932E81A] (AR v2) Copy OK

Track 8

Filename F:\My Storage\What.cd Uploads\Various Artists - Guardians of the Galaxy (2014) {Deluxe Edition Soundtrack} [FLAC]\Disc 2 (Original Score By Tyler Bates)\08 - What a Bunch of A-Holes.wav

Peak level 100.0 % Extraction speed 1.5 X Track quality 100.0 % Test CRC BD170FE4 Copy CRC BD170FE4 Accurately ripped (confidence 63) [AA5D7CD8] (AR v2) Copy OK

Track 9

Filename F:\My Storage\What.cd Uploads\Various Artists - Guardians of the Galaxy (2014) {Deluxe Edition Soundtrack} [FLAC]\Disc 2 (Original Score By Tyler Bates)\09 - Busted.wav

Peak level 98.5 % Extraction speed 1.4 X Track quality 100.0 % Test CRC 1F2B0248 Copy CRC 1F2B0248 Accurately ripped (confidence 63) [E42BB42C] (AR v2) Copy OK

Track 10

Filename F:\My Storage\What.cd Uploads\Various Artists - Guardians of the Galaxy (2014) {Deluxe Edition Soundtrack} [FLAC]\Disc 2 (Original Score By Tyler Bates)\10 - The New Meat.wav

Peak level 70.3 % Extraction speed 1.0 X Track quality 100.0 % Test CRC 0FD73DC7 Copy CRC 0FD73DC7 Accurately ripped (confidence 63) [6F3F0E3C] (AR v2) Copy OK

Track 11

Filename F:\My Storage\What.cd Uploads\Various Artists - Guardians of the Galaxy (2014) {Deluxe Edition Soundtrack} [FLAC]\Disc 2 (Original Score By Tyler Bates)\11 - The Destroyer.wav

Peak level 100.0 % Extraction speed 1.4 X Track quality 100.0 % Test CRC F5FEC376 Copy CRC F5FEC376 Accurately ripped (confidence 63) [94347A2F] (AR v2) Copy OK

Track 12

Filename F:\My Storage\What.cd Uploads\Various Artists - Guardians of the Galaxy (2014) {Deluxe Edition Soundtrack} [FLAC]\Disc 2 (Original Score By Tyler Bates)\12 - Sanctuary.wav

Peak level 100.0 % Extraction speed 1.6 X Track quality 100.0 % Test CRC B1853468 Copy CRC B1853468 Accurately ripped (confidence 63) [04F186AE] (AR v2) Copy OK

Track 13

Filename F:\My Storage\What.cd Uploads\Various Artists - Guardians of the Galaxy (2014) {Deluxe Edition Soundtrack} [FLAC]\Disc 2 (Original Score By Tyler Bates)\13 - The Kyln Escape.wav

Peak level 100.0 % Extraction speed 2.0 X Track quality 100.0 % Test CRC 1512AE78 Copy CRC 1512AE78 Accurately ripped (confidence 63) [5D982707] (AR v2) Copy OK

Track 14

Filename F:\My Storage\What.cd Uploads\Various Artists - Guardians of the Galaxy (2014) {Deluxe Edition Soundtrack} [FLAC]\Disc 2 (Original Score By Tyler Bates)\14 - Don't Mess with My Walkman.wav

Peak level 100.0 % Extraction speed 1.2 X Track quality 100.0 % Test CRC 5636F26C Copy CRC 5636F26C Accurately ripped (confidence 63) [00963915] (AR v2) Copy OK

Track 15

Filename F:\My Storage\What.cd Uploads\Various Artists - Guardians of the Galaxy (2014) {Deluxe Edition Soundtrack} [FLAC]\Disc 2 (Original Score By Tyler Bates)\15 - The Great Companion.wav

Peak level 99.8 % Extraction speed 1.3 X Track quality 100.0 % Test CRC 009C0312 Copy CRC 009C0312 Accurately ripped (confidence 63) [6B7877A6] (AR v2) Copy OK

Track 16

Filename F:\My Storage\What.cd Uploads\Various Artists - Guardians of the Galaxy (2014) {Deluxe Edition Soundtrack} [FLAC]\Disc 2 (Original Score By Tyler Bates)\16 - The Road to Knowhere.wav

Peak level 46.8 % Extraction speed 1.1 X Track quality 100.0 % Test CRC F1A1BDDE Copy CRC F1A1BDDE Accurately ripped (confidence 63) [60F2C30D] (AR v2) Copy OK

Track 17

Filename F:\My Storage\What.cd Uploads\Various Artists - Guardians of the Galaxy (2014) {Deluxe Edition Soundtrack} [FLAC]\Disc 2 (Original Score By Tyler Bates)\17 - The Collector.wav

Peak level 99.2 % Extraction speed 2.0 X Track quality 100.0 % Test CRC 1690B2B4 Copy CRC 1690B2B4 Accurately ripped (confidence 63) [F3FEF5D0] (AR v2) Copy OK

Track 18

Filename F:\My Storage\What.cd Uploads\Various Artists - Guardians of the Galaxy (2014) {Deluxe Edition Soundtrack} [FLAC]\Disc 2 (Original Score By Tyler Bates)\18 - Ronan's Arrival.wav

Peak level 99.0 % Extraction speed 1.4 X Track quality 100.0 % Test CRC 36F5B0B7 Copy CRC 36F5B0B7 Accurately ripped (confidence 63) [13E1F6BD] (AR v2) Copy OK

Track 19

Filename F:\My Storage\What.cd Uploads\Various Artists - Guardians of the Galaxy (2014) {Deluxe Edition Soundtrack} [FLAC]\Disc 2 (Original Score By Tyler Bates)\19 - The Pod Chase.wav

Peak level 100.0 % Extraction speed 1.9 X Track quality 99.9 % Test CRC 255819E0 Copy CRC 255819E0 Accurately ripped (confidence 63) [393C06E3] (AR v2) Copy OK

Track 20

Filename F:\My Storage\What.cd Uploads\Various Artists - Guardians of the Galaxy (2014) {Deluxe Edition Soundtrack} [FLAC]\Disc 2 (Original Score By Tyler Bates)\20 - Sacrifice.wav

Peak level 96.9 % Extraction speed 2.1 X Track quality 100.0 % Test CRC 2850775B Copy CRC 2850775B Accurately ripped (confidence 63) [A8F7310F] (AR v2) Copy OK

Track 21

Filename F:\My Storage\What.cd Uploads\Various Artists - Guardians of the Galaxy (2014) {Deluxe Edition Soundtrack} [FLAC]\Disc 2 (Original Score By Tyler Bates)\21 - We All Got Dead People.wav

Peak level 99.1 % Extraction speed 1.9 X Track quality 100.0 % Test CRC CA2870B8 Copy CRC CA2870B8 Accurately ripped (confidence 63) [110845CD] (AR v2) Copy OK

Track 22

Filename F:\My Storage\What.cd Uploads\Various Artists - Guardians of the Galaxy (2014) {Deluxe Edition Soundtrack} [FLAC]\Disc 2 (Original Score By Tyler Bates)\22 - The Ballad of the Nova Corps. (Instrumental).wav

Peak level 99.1 % Extraction speed 1.9 X Track quality 100.0 % Test CRC AAACB40C Copy CRC AAACB40C Accurately ripped (confidence 63) [17581B19] (AR v2) Copy OK

Track 23

Filename F:\My Storage\What.cd Uploads\Various Artists - Guardians of the Galaxy (2014) {Deluxe Edition Soundtrack} [FLAC]\Disc 2 (Original Score By Tyler Bates)\23 - Groot Spores.wav

Peak level 74.3 % Extraction speed 1.7 X Track quality 100.0 % Test CRC C184DD2B Copy CRC C184DD2B Accurately ripped (confidence 63) [6B45AFE2] (AR v2) Copy OK

Track 24

Filename F:\My Storage\What.cd Uploads\Various Artists - Guardians of the Galaxy (2014) {Deluxe Edition Soundtrack} [FLAC]\Disc 2 (Original Score By Tyler Bates)\24 - Guardians United.wav

Peak level 100.0 % Extraction speed 2.2 X Track quality 100.0 % Test CRC F8EF9897 Copy CRC F8EF9897 Accurately ripped (confidence 63) [1FBE6FDE] (AR v2) Copy OK

Track 25

Filename F:\My Storage\What.cd Uploads\Various Artists - Guardians of the Galaxy (2014) {Deluxe Edition Soundtrack} [FLAC]\Disc 2 (Original Score By Tyler Bates)\25 - The Big Blast.wav

Peak level 100.0 % Extraction speed 1.9 X Track quality 99.9 % Test CRC E621D34C Copy CRC E621D34C Accurately ripped (confidence 63) [CECCF169] (AR v2) Copy OK

Track 26

Filename F:\My Storage\What.cd Uploads\Various Artists - Guardians of the Galaxy (2014) {Deluxe Edition Soundtrack} [FLAC]\Disc 2 (Original Score By Tyler Bates)\26 - Groot Cocoon.wav

Peak level 99.0 % Extraction speed 2.2 X Track quality 100.0 % Test CRC CC3D8D36 Copy CRC CC3D8D36 Accurately ripped (confidence 63) [8159CD63] (AR v2) Copy OK

Track 27

Filename F:\My Storage\What.cd Uploads\Various Artists - Guardians of the Galaxy (2014) {Deluxe Edition Soundtrack} [FLAC]\Disc 2 (Original Score By Tyler Bates)\27 - Black Tears.wav

Peak level 100.0 % Extraction speed 2.3 X Track quality 100.0 % Test CRC FF2F218D Copy CRC FF2F218D Accurately ripped (confidence 63) [2DA077ED] (AR v2) Copy OK

Track 28

Filename F:\My Storage\What.cd Uploads\Various Artists - Guardians of the Galaxy (2014) {Deluxe Edition Soundtrack} [FLAC]\Disc 2 (Original Score By Tyler Bates)\28 - Citizens Unite.wav

Peak level 62.2 % Extraction speed 1.4 X Track quality 99.8 % Test CRC 484A1900 Copy CRC 484A1900 Accurately ripped (confidence 63) [4B884D95] (AR v2) Copy OK

Track 29

Filename F:\My Storage\What.cd Uploads\Various Artists - Guardians of the Galaxy (2014) {Deluxe Edition Soundtrack} [FLAC]\Disc 2 (Original Score By Tyler Bates)\29 - A Nova Upgrade.wav

Peak level 98.8 % Extraction speed 2.2 X Track quality 100.0 % Test CRC 49C23455 Copy CRC 49C23455 Accurately ripped (confidence 62) [11D98952] (AR v2) Copy OK

All tracks accurately ripped

No errors occurred

End of status report

---- CUETools DB Plugin V2.1.6

[CTDB TOCID: 09BV3qKCFwmWICIG8wR.kX_pPOE-] foundSubmit result: 09BV3qKCFwmWICIG8wR.kX_pPOE- has been confirmedTrack | CTDB Status 1 | (123/126) Accurately ripped 2 | (126/126) Accurately ripped 3 | (123/126) Accurately ripped 4 | (123/126) Accurately ripped 5 | (126/126) Accurately ripped 6 | (126/126) Accurately ripped 7 | (126/126) Accurately ripped 8 | (125/126) Accurately ripped 9 | (126/126) Accurately ripped 10 | (126/126) Accurately ripped 11 | (126/126) Accurately ripped 12 | (126/126) Accurately ripped 13 | (126/126) Accurately ripped 14 | (126/126) Accurately ripped 15 | (126/126) Accurately ripped 16 | (126/126) Accurately ripped 17 | (126/126) Accurately ripped 18 | (126/126) Accurately ripped 19 | (126/126) Accurately ripped 20 | (126/126) Accurately ripped 21 | (126/126) Accurately ripped 22 | (126/126) Accurately ripped 23 | (126/126) Accurately ripped 24 | (126/126) Accurately ripped 25 | (126/126) Accurately ripped 26 | (126/126) Accurately ripped 27 | (126/126) Accurately ripped 28 | (126/126) Accurately ripped 29 | (124/126) Accurately ripped

==== Log checksum B782043F0626AAFBECC6F7E0DF673B0D549ADF2A9381E1780FA10F6A6AD3F59E ====
[/spoiler]
[spoiler="Содержание индексной карты (.CUE) [Disc 1]"]

REM GENRE SoundtrackREM DATE 2014REM DISCID B60C8C0DREM COMMENT "ExactAudioCopy v1.0b6"CATALOG 0050087314514PERFORMER "Various"TITLE "Guardians Of The Galaxy [Deluxe Editon] (Disc 1: Awesome Mix Vol.1)"FILE "01 - Blue Swede - Hooked On A Feeling.wav" WAVE TRACK 01 AUDIO TITLE "Hooked On A Feeling" PERFORMER "Blue Swede" ISRC SEAMA7343050 INDEX 01 00:00:00 TRACK 02 AUDIO TITLE "Go All The Way" PERFORMER "Raspberries" ISRC USCA29901186 INDEX 00 02:52:50FILE "02 - Raspberries - Go All The Way.wav" WAVE INDEX 01 00:00:00 TRACK 03 AUDIO TITLE "Spirit in the Sky" PERFORMER "Norman Greenbaum" ISRC USWD10524718 INDEX 00 03:21:11FILE "03 - Norman Greenbaum - Spirit in the Sky.wav" WAVE INDEX 01 00:00:00 TRACK 04 AUDIO TITLE "Moonage Daydream" PERFORMER "David Bowie" ISRC USJT11200003 INDEX 00 04:02:12FILE "04 - David Bowie - Moonage Daydream.wav" WAVE INDEX 01 00:00:00 TRACK 05 AUDIO TITLE "Fooled Around And Fell In Love" PERFORMER "Elvin Bishop" ISRC USPR37600038 INDEX 00 04:41:10FILE "05 - Elvin Bishop - Fooled Around And Fell In Love.wav" WAVE INDEX 01 00:00:00 TRACK 06 AUDIO TITLE "I'm Not In Love" PERFORMER "10CC" ISRC GBF087500001 INDEX 00 04:35:39FILE "06 - 10CC - I'm Not In Love.wav" WAVE INDEX 01 00:00:00 TRACK 07 AUDIO TITLE "I Want You Back" PERFORMER "Jackson 5" ISRC USMO19400306 INDEX 00 06:03:26FILE "07 - Jackson 5 - I Want You Back.wav" WAVE INDEX 01 00:00:00 TRACK 08 AUDIO TITLE "Come And Get Your Love" PERFORMER "Redbone" ISRC USSM17300653 INDEX 00 02:58:61FILE "08 - Redbone - Come And Get Your Love.wav" WAVE INDEX 01 00:00:00 TRACK 09 AUDIO TITLE "Cherry Bomb" PERFORMER "The Runaways" ISRC USIR20200576 INDEX 00 03:26:46FILE "09 - The Runaways - Cherry Bomb.wav" WAVE INDEX 01 00:00:00 TRACK 10 AUDIO TITLE "Escape (The Pina Colada Song)" PERFORMER "Rupert Holmes" ISRC USMC17948997 INDEX 00 02:17:66FILE "10 - Rupert Holmes - Escape (The Pina Colada Song).wav" WAVE INDEX 01 00:00:00 TRACK 11 AUDIO TITLE "O-O-H Child" PERFORMER "The Five Stairsteps" ISRC USBR10100127 INDEX 00 04:37:13FILE "11 - The Five Stairsteps - O-O-H Child.wav" WAVE INDEX 01 00:00:00 TRACK 12 AUDIO TITLE "Ain't No Mountain High Enough" PERFORMER "Marvin Gaye And Tammi Terrell" ISRC USMO16700486 INDEX 00 03:13:72FILE "12 - Marvin Gaye And Tammi Terrell - Ain't No Mountain High Enough.wav" WAVE INDEX 01 00:00:00 TRACK 13 MODEx/2xxx TITLE "Data Track" PERFORMER "Data" INDEX 00 02:29:01
[/spoiler]
[spoiler="Содержание индексной карты (.CUE) [Disc 2]"]

REM GENRE SoundtrackREM DATE 2014REM DISCID A90F2D1DREM COMMENT "ExactAudioCopy v1.0b6"CATALOG 0050087313708PERFORMER "Tyler Bates"TITLE "Guardians of the Galaxy [Deluxe Edition] (Disc 2: Original Score)"FILE "01 - Morag.wav" WAVE TRACK 01 AUDIO TITLE "Morag" PERFORMER "Tyler Bates" ISRC USHR11435797 INDEX 01 00:00:00FILE "02 - The Final Battle Begins.wav" WAVE TRACK 02 AUDIO TITLE "The Final Battle Begins" PERFORMER "Tyler Bates" ISRC USHR11435798 INDEX 01 00:00:00FILE "03 - Plasma Ball.wav" WAVE TRACK 03 AUDIO TITLE "Plasma Ball" PERFORMER "Tyler Bates" ISRC USHR11435799 INDEX 01 00:00:00FILE "04 - Quill's Big Retreat.wav" WAVE TRACK 04 AUDIO TITLE "Quill's Big Retreat" PERFORMER "Tyler Bates" ISRC USHR11435800 INDEX 01 00:00:00FILE "05 - To the Stars.wav" WAVE TRACK 05 AUDIO TITLE "To the Stars" PERFORMER "Tyler Bates" ISRC USHR11435801 INDEX 01 00:00:00FILE "06 - Ronan's Theme.wav" WAVE TRACK 06 AUDIO TITLE "Ronan's Theme" PERFORMER "Tyler Bates" ISRC USHR11435802 INDEX 01 00:00:00FILE "07 - Everyone's an Idiot.wav" WAVE TRACK 07 AUDIO TITLE "Everyone's an Idiot" PERFORMER "Tyler Bates" ISRC USHR11435803 INDEX 01 00:00:00FILE "08 - What a Bunch of A-Holes.wav" WAVE TRACK 08 AUDIO TITLE "What a Bunch of A-Holes" PERFORMER "Tyler Bates" ISRC USHR11435804 INDEX 01 00:00:00FILE "09 - Busted.wav" WAVE TRACK 09 AUDIO TITLE "Busted" PERFORMER "Tyler Bates" ISRC USHR11435806 INDEX 01 00:00:00FILE "10 - The New Meat.wav" WAVE TRACK 10 AUDIO TITLE "The New Meat" PERFORMER "Tyler Bates" ISRC USHR11435807 INDEX 01 00:00:00FILE "11 - The Destroyer.wav" WAVE TRACK 11 AUDIO TITLE "The Destroyer" PERFORMER "Tyler Bates" ISRC USHR11435808 INDEX 01 00:00:00FILE "12 - Sanctuary.wav" WAVE TRACK 12 AUDIO TITLE "Sanctuary" PERFORMER "Tyler Bates" ISRC USHR11435809 INDEX 01 00:00:00FILE "13 - The Kyln Escape.wav" WAVE TRACK 13 AUDIO TITLE "The Kyln Escape" PERFORMER "Tyler Bates" ISRC USHR11435810 INDEX 01 00:00:00FILE "14 - Don't Mess with My Walkman.wav" WAVE TRACK 14 AUDIO TITLE "Don't Mess with My Walkman" PERFORMER "Tyler Bates" ISRC USHR11435811 INDEX 01 00:00:00FILE "15 - The Great Companion.wav" WAVE TRACK 15 AUDIO TITLE "The Great Companion" PERFORMER "Tyler Bates" ISRC USHR11435812 INDEX 01 00:00:00FILE "16 - The Road to Knowhere.wav" WAVE TRACK 16 AUDIO TITLE "The Road to Knowhere" PERFORMER "Tyler Bates" ISRC USHR11435813 INDEX 01 00:00:00FILE "17 - The Collector.wav" WAVE TRACK 17 AUDIO TITLE "The Collector" PERFORMER "Tyler Bates" ISRC USHR11435814 INDEX 01 00:00:00FILE "18 - Ronan's Arrival.wav" WAVE TRACK 18 AUDIO TITLE "Ronan's Arrival" PERFORMER "Tyler Bates" ISRC USHR11435814 INDEX 01 00:00:00FILE "19 - The Pod Chase.wav" WAVE TRACK 19 AUDIO TITLE "The Pod Chase" PERFORMER "Tyler Bates" ISRC USHR11435816 INDEX 01 00:00:00FILE "20 - Sacrifice.wav" WAVE TRACK 20 AUDIO TITLE "Sacrifice" PERFORMER "Tyler Bates" ISRC USHR11435817 INDEX 01 00:00:00FILE "21 - We All Got Dead People.wav" WAVE TRACK 21 AUDIO TITLE "We All Got Dead People" PERFORMER "Tyler Bates" ISRC USHR11435817 INDEX 01 00:00:00FILE "22 - The Ballad of the Nova Corps. (Instrumental).wav" WAVE TRACK 22 AUDIO TITLE "The Ballad of the Nova Corps. (Instrumental)" PERFORMER "Tyler Bates" ISRC USHR11435820 INDEX 01 00:00:00FILE "23 - Groot Spores.wav" WAVE TRACK 23 AUDIO TITLE "Groot Spores" PERFORMER "Tyler Bates" ISRC USHR11435821 INDEX 01 00:00:00FILE "24 - Guardians United.wav" WAVE TRACK 24 AUDIO TITLE "Guardians United" PERFORMER "Tyler Bates" ISRC USHR11435821 INDEX 01 00:00:00FILE "25 - The Big Blast.wav" WAVE TRACK 25 AUDIO TITLE "The Big Blast" PERFORMER "Tyler Bates" ISRC USHR11435823 INDEX 01 00:00:00FILE "26 - Groot Cocoon.wav" WAVE TRACK 26 AUDIO TITLE "Groot Cocoon" PERFORMER "Tyler Bates" ISRC USHR11435824 INDEX 01 00:00:00FILE "27 - Black Tears.wav" WAVE TRACK 27 AUDIO TITLE "Black Tears" PERFORMER "Tyler Bates" ISRC USHR11435825 INDEX 01 00:00:00FILE "28 - Citizens Unite.wav" WAVE TRACK 28 AUDIO TITLE "Citizens Unite" PERFORMER "Tyler Bates" ISRC USHR11435826 INDEX 01 00:00:00FILE "29 - A Nova Upgrade.wav" WAVE TRACK 29 AUDIO TITLE "A Nova Upgrade" PERFORMER "Tyler Bates" ISRC USHR11435827 INDEX 01 00:00:00
[/spoiler]
[/spoiler]

Трекер:  [ 27-Апр-2015 19:30 ]

  

Скачать .torrent

Размер .torrent файла 30 KB


Размер: 990 MB
Хэш (hash) релиза: f1b3c2a4ed3781dbac661808b83a2a930ef2da1a

Торренты, похожие на Стражи Галактики Guardians of the Galaxy скачать торрент

Форум Название Автор Размер S L Добавлен
Саундтреки к фильмам и мультфильмам (lossless) ·· (Soundtrack) Стражи Галактики / Guardians Of The Galaxy: Cosmic Mix Vol. 1 (Music from the Animated Television Series) (Various Artists) - 2015, FLAC (tracks), lossless Galfimbul 382449714365 MB 0 0 1452510385

14:06

11-Янв-16

Саундтреки к фильмам и мультфильмам (mp3) ·· (Score) Стражи Галактики / Guardians Of The Galaxy [Complete Motion Picture Score] (Tyler Bates & VA) - 2014, MP3, 320 kbps Galfimbul 378229984361 MB 0 0 1430216554

13:22

28-Апр-15

Саундтреки к фильмам и мультфильмам (lossless) ·· (Soundtrack) Стражи Галактики. Часть 2 / Guardians of the Galaxy: Awesome Mix Vol. 2 (by VA) - 2017, FLAC (tracks+.cue) lossless Galfimbul 370555780353 MB 3 0 1493402810

21:06

28-Апр-17

Саундтреки к фильмам и мультфильмам (lossless) ·· (Score) [WEB] Стражи Галактики. Часть 1 и 2 / Guardians Of The Galaxy Vol. 1 & 2 (Tyler Bates) - 2014-2017, FLAC (tracks), lossless Galfimbul 615328082587 MB 0 0 1492867089

16:18

22-Апр-17

Саундтреки к фильмам и мультфильмам (mp3) ·· (Soundtrack) Стражи Галактики. Часть 1 и 2 / Guardians Of The Galaxy: Awesome Mix Vol. 1 & 2 - 2014-2017, MP3, 320 kbps Galfimbul 235663055225 MB 2 0 1492810591

00:36

22-Апр-17

Саундтреки к фильмам и мультфильмам (mp3) ·· (Score) Стражи Галактики. Часть 1 и 2 / Guardians Of The Galaxy Vol. 1 & 2 (Tyler Bates) - 2014-2017, MP3, 320 kbps Galfimbul 264280312252 MB 0 0 1492785705

17:41

21-Апр-17

Еще никто не оставлял запись к записи скачать торрент Стражи Галактики Guardians of the Galaxy . Будь первым!

!Обратная связь