Скачать порно через торрент Street and panty pisser 77 Уличный Писсинг 77 UnionPeer.org бесплатно онлайн HD качество

Скачать новое порно 2015, 2014 новинки через торрент UnionPeer.org

Порно торрент бесплатно ЮнионПир.орг

Если у вас наблюдаются проблемы со скриншотами, переходом по ссылками, скачиванием торрентов - проблемы в блокировщике рекламы AdBlock. #хорошегоДня!


Статистика раздачи
Размер:  699 MB   |    Зарегистрирован:  2 года 3 месяца   |    .torrent скачан:  603 раза   |   
Раздают:  2  
   
Загрузка...
 
Автор Сообщение

Galfimbul

avatar Galfimbul


Street and panty pisser 77 / Уличный Писсинг 77

Год производства: 2006 г.
Страна: German
Жанр: Peeing
Продолжительность: 01:11:03

Студия: SG-Video

Описание: девчонки позируют раздеваются,и красиво писают перед камерой!!

Качество видео: DVDRip
Формат видео: AVI
Видео: Video: Xvid 512x384 25fps 1227kbps [V: mpeg4 advanced simple profile, yuv420p, 512x384, 1227 kb/s]
Аудио: Audio: MP3 48000Hz stereo 135kbps [A: mp3, 48000 Hz, stereo, 135 kb/s]
Video
ID : 0
Format : MPEG-4 Visual
Format profile : Advanced Simple@L5
Format settings, BVOP : 2
Format settings, QPel : No
Format settings, GMC : No warppoints
Format settings, Matrix : Default (H.263)
Muxing mode : Packed bitstream
Codec ID : XVID
Codec ID/Hint : XviD
Duration : 1h 11mn
Bit rate : 1 227 Kbps
Width : 512 pixels
Height : 384 pixels
Display aspect ratio : 4:3
Frame rate : 25.000 fps
Color space : YUV
Chroma subsampling : 4:2:0
Bit depth : 8 bits
Scan type : Progressive
Compression mode : Lossy
Bits/(Pixel*Frame) : 0.250
Stream size : 624 MiB (89%)
Writing library : XviD 1.1.0 Beta2 (UTC 2005-04-04)

Audio
ID : 1
Format : MPEG Audio
Format version : Version 1
Format profile : Layer 3
Mode : Joint stereo
Mode extension : MS Stereo
Codec ID : 55
Codec ID/Hint : MP3
Duration : 1h 11mn
Bit rate mode : Variable
Bit rate : 135 Kbps
Nominal bit rate : 128 Kbps
Channel(s) : 2 channels
Sampling rate : 48.0 KHz
Compression mode : Lossy
Stream size : 68.6 MiB (10%)
Alignment : Aligned on interleaves
Interleave, duration : 24 ms (0.60 video frame)
Interleave, preload duration : 463 ms
Writing library : LAME3.90.
Encoding settings : -m j -V 4 -q 2 -lowpass 17.6 --abr 128


Трекер:  [ 26-Апр-2015 00:30 ]

  

Скачать .torrent

Размер .torrent файла 14 KB


Размер: 699 MB
Хэш (hash) релиза: f110e9c7cba55cb44325cbf8651c778d4832c3e6

Еще никто не оставлял запись к записи скачать торрент Street and panty pisser 77 Уличный Писсинг 77 . Будь первым!

!Обратная связь