Скачать через торрент Как и ожидалось, моя школьная романтическая жизнь не удалась 2 Yahari Ore no Seishun Lovecome wa Machigatte Iru. Zoku бесплатно Аниме Все серии на русском torrent

Если у вас наблюдаются проблемы со скриншотами, переходом по ссылками, скачиванием торрентов - проблемы в блокировщике рекламы AdBlock. #хорошегоДня!


Статистика раздачи
Размер:  810 MB   |    Зарегистрирован:  2 года 5 месяцев   |    .torrent скачан:  41 раз   |   
Раздают:  1  
   
Загрузка...
 
Автор Сообщение

Galfimbul

avatar Galfimbul


Рай в серых тонах / Grisaia no Rakuen
Страна: Япония
Год выпуска: 2015 г.
Тип: TV
Жанр: Комедия, романтика, школа
Продолжительность: 13 эп. по 25 мин
Русские субтитры: Sa4ko aka Kiyoso & Zenobian
Переводчик/Тайм-код/Оформление: Sa4ko aka Kiyoso
Редактор: Zenobian
Русские субтитры: Dreamers Team
Переводчик: Empty
Редактор: Ryuji

Режиссер: Танака Мотоки

Студия:

Описание: 17-летний Хатиман Хикигая – юный циник и пессимист, уверенный, что «весна юности», дружба и любовь - обман, ложь и фикция, а поддержание сего мифа есть коллективный заговор тех, кто обжегся и ничего не получил, но не хочет признавать очевидного. Молодая учительница Сидзука Хирацука оказалась не в силах переубедить проблемного ученика и в отчаянии отправила его в «клуб служения», единственным членом которого числится звезда школы Юкино Юкиносита. А может, на деле сэнсэй не так уж проста и поняла, что помощь требуется обоим?
Дело в том, что Юкиноситу, при всем внешнем совершенстве, тоже заносит, и девушка искренне считает, что на гениях (вроде нее) лежит тяжкий крест служения «простым смертным», который надо нести, не жалуясь. Тут неглупый и язвительный Хикигая и пригодится для избавления красавицы от мании величия, а сам он в дискуссиях с Юкино поймет, что роль вселенского страдальца – не судьба, а маска, причем не самая лучшая. Ну а примкнувшая к клубу живая и веселая Юи Юигахама сможет личным примером показать героям, что они, при всех талантах – обычные подростки, которым не ерундой маяться надо, а быть проще и наслаждаться той самой весной юности, единственной и неповторимой!

Качество: HDTVRip | Равка: Leopard-Raws Формат: mp4 | Тип Видео: без хардсаба
Видео кодек: AVC
Видео: AVC, 8 bits, 1280x720, 1164 kbps, 23.976 fps, (16:9)
RUS - AAC, 192 kbps, 48.0 KHz, 2 ch Язык Русский (внешним файлом) двухголосый (муж+жен), Cuba77, Trina_D
JP - AAC, 192 kbps, 48.0 KHz, 2 ch Язык Японский
01. Nobody Knows Why They Came to the Volunteers Club
02. His and Her Love Confessions Will Reach No One
03. Quietly, Yukinoshita Yukino Makes a Decision
Общее
Полное имя : D:\[Leopard-Raws]\[Leopard-Raws] Yahari Ore no Seishun Love Come wa Machigatteiru. Zoku\[Leopard-Raws] Yahari Ore no Seishun Love Come wa Machigatteiru. Zoku - 01 RAW (TBS 1280x720 x264 AAC).mp4
Формат : MPEG-4
Профиль формата : Base Media
Идентификатор кодека : isom
Размер файла : 238 Мбайт
Продолжительность : 24 м.
Режим общего битрейта : Переменный
Общий поток : 1360 Кбит/сек
Дата кодирования : UTC 2015-04-02 18:59:56
Дата пометки : UTC 2015-04-02 18:59:56

Видео
Идентификатор : 1
Формат : AVC
Формат/Информация : Advanced Video Codec
Профиль формата : High@L4.1
Параметр CABAC формата : Да
Параметр ReFrames формата : 4 кадра
Идентификатор кодека : avc1
Идентификатор кодека/Информация : Advanced Video Coding
Продолжительность : 24 м.
Битрейт : 1164 Кбит/сек
Максимальный битрейт : 6080 Кбит/сек
Ширина : 1280 пикселей
Высота : 720 пикселей
Соотношение сторон : 16:9
Режим частоты кадров : Постоянный
Частота кадров : 23,976 кадра/сек
Цветовое пространство : YUV
Субдискретизация насыщенности : 4:2:0
Битовая глубина : 8 бит
Тип развёртки : Прогрессивная
Бит/(Пиксели*Кадры) : 0.053
Размер потока : 204 Мбайт (86%)
Заголовок : 264:fps=23.976@GPAC0.5.1-DEV-rev4929
Библиотека кодирования : x264 core 129 r2245+729M 1a52e03
Настройки программы : cabac=1 / ref=4 / deblock=1:1:-1 / analyse=0x3:0x113 / me=umh / subme=9 / psy=1 / fade_compensate=0.00 / psy_rd=1.00:0.00 / mixed_ref=1 / me_range=24 / chroma_me=1 / trellis=2 / 8x8dct=1 / cqm=0 / deadzone=21,11 / fast_pskip=1 / chroma_qp_offset=-2 / threads=8 / lookahead_threads=1 / sliced_threads=0 / nr=0 / decimate=1 / interlaced=0 / bluray_compat=0 / constrained_intra=0 / fgo=0 / bframes=9 / b_pyramid=2 / b_adapt=2 / b_bias=0 / direct=1 / weightb=1 / open_gop=0 / weightp=2 / keyint=240 / keyint_min=24 / scenecut=40 / intra_refresh=0 / rc=crf / mbtree=0 / crf=18.5 / qcomp=0.72 / qpmin=0 / qpmax=69 / qpstep=4 / ip_ratio=1.40 / pb_ratio=1.30 / aq=1:0.85
Дата кодирования : UTC 2015-04-02 18:59:56
Дата пометки : UTC 2015-04-02 18:59:59
Основные цвета : BT.709
Характеристики трансфера : BT.709
Коэффициенты матрицы : BT.709

Аудио
Идентификатор : 2
Формат : AAC
Формат/Информация : Advanced Audio Codec
Профиль формата : LC
Идентификатор кодека : 40
Продолжительность : 24 м.
Вид битрейта : Переменный
Битрейт : 192 Кбит/сек
Максимальный битрейт : 226 Кбит/сек
Каналы : 2 канала
Расположение каналов : Front: L R
Частота : 48,0 КГц
Метод сжатия : С потерями
Размер потока : 33,6 Мбайт (14%)
Язык : Japanese
Дата кодирования : UTC 2015-04-02 17:45:54
Дата пометки : UTC 2015-04-02 18:59:59


Отличия от других раздач
- [url=...4976842]этой[/url]
Наличие озвучки
- [url=...4977389]этой[/url] Универсальная раздача, Яп. дорожка в комплекте с субтитрами

Трекер:  [ 22-Апр-2015 23:30 ]

  

Скачать .torrent

Размер .torrent файла 18 KB


Размер: 810 MB
Хэш (hash) релиза: c80de38919fe3e1a9430834a53cf6e5dbe0382f3
Подписка на обновления:

Торренты, похожие на Как и ожидалось, моя школьная романтическая жизнь не удалась 2 Yahari Ore no Seishun Lovecome wa Machigatte Iru. Zoku скачать торрент

Форум Название Автор Размер S L Добавлен
Аниме | Rips ·· Как и ожидалось, моя школьная романтическая жизнь не удалась 2 / Yahari Ore no Seishun Lovecome wa Machigatte Iru. Zoku / OreGairu 2 [TV] [01 из 13] [Без хардсаба] [RUS(int), JAP, SUB] [2015 г., комедия, романтика, школа, HDTVRip] [720p] Galfimbul 285075836272 MB 0 0 1428486681

12:51

8-Апр-15

Аниме | HD Rips ·· Как и ожидалось, моя школьная романтическая жизнь не удалась 2 / Yahari Ore no Seishun Lovecome wa Machigatte Iru. Zoku / OreGairu 2 [TV] [1 из 13] [Полухардсаб] [RUS(int)] [2015 г., комедия, романтика, школа, HDTVRip] [720p] Galfimbul 249913747238 MB 0 0 1428101080

01:44

4-Апр-15

Аниме | HD Rips ·· Как и ожидалось, моя школьная романтическая жизнь не удалась 2 / Yahari Ore no Seishun Lovecome wa Machigatte Iru. Zoku / OreGairu 2 [TV] [1 из >13] [без хардсаба] [JAP+SUB] [2015 г., комедия, романтика, школа, HDTVRip] [720p] Galfimbul 213625085204 MB 0 0 1428045955

10:25

3-Апр-15

Аниме | HD Rips ·· Как и ожидал, моя школьная романтическая жизнь не удалась (ТВ-2) / Yahari Ore no Seishun Lovecome wa Machigatte Iru. Zoku (Ойкава Кэй) [TV] [13 из 13] [без хардсаба] [RUS(ext),JAP+SUB] [2015, комедия, романтика, драма, BDRip] [720p] Galfimbul 86659355108.07 GB 0 0 1505930568

21:02

20-Сен-17

Еще никто не оставлял запись к записи скачать торрент Как и ожидалось, моя школьная романтическая жизнь не удалась 2 Yahari Ore no Seishun Lovecome wa Machigatte Iru. Zoku . Будь первым!

!Обратная связь