Скачать через торрент Рай в серых тонах Grisaia no Rakuen бесплатно Аниме Все серии на русском torrent

Если у вас наблюдаются проблемы со скриншотами, переходом по ссылками, скачиванием торрентов - проблемы в блокировщике рекламы AdBlock. #хорошегоДня!


Статистика раздачи
Размер:  296 MB   |    Зарегистрирован:  2 года 4 месяца   |    .torrent скачан:  30 раз   |   
Раздают:  1  
   
Загрузка...
 
Автор Сообщение

Galfimbul

avatar Galfimbul


Рай в серых тонах / Grisaia no Rakuen
Страна: Япония
Год выпуска: 2015 г.
Тип: TV
Жанр: Школа, романтика, драма, психологический
Продолжительность: 10 эп. по 25 мин
Русские субтитры: Timecraft
Редактор: AleX_MytH
Переводчик: Nachtwandler
Оформление: Surokune

Режиссер: Танака Мотоки

Студия:

Описание: Проблемы Юджи вроде бы закончились. Новая опекунша — снайпер спецслужб Асако Кусакабе — оказалась женщиной грубоватой, но заботливой. А несколько лет спустя и жизнь наладилась.
Вот только прошлое готово напомнить о себе в самый неподходящий момент. Этот рай окрасился для Юджи в серые тона. Но пятёрка героинь готова отплатить парню за спасение, а в прошлом остались не только враги...

Качество: HDTVRip | Равка: Leopard-Raws Формат: mp4 | Тип Видео: без хардсаба
Видео кодек: AVC
Видео: AVC, 8 bits, 1280x720, 1333 kbps, 23.976 fps, (16:9)
RUS - AAC, 192 kbps, 48.0 KHz, 2 ch Язык Русский (внешним файлом) трёхголосый (муж+жен), Cuba77, Nika Lenina, Гамлетка Цезаревна
JP - AAC, 192 kbps, 48.0 KHz, 2 ch Язык Японский
01. The Cocoon of Caprice I
Общее
Полное имя : D:\[Leopard-Raws]\[Leopard-Raws] Grisaia no Rakuen\[Leopard-Raws] Grisaia no Rakuen - 01 RAW (ATX 1280x720 x264 AAC).mp4
Формат : MPEG-4
Профиль формата : Base Media
Идентификатор кодека : isom
Размер файла : 262 Мбайт
Продолжительность : 24 м.
Режим общего битрейта : Переменный
Общий поток : 1528 Кбит/сек
Дата кодирования : UTC 2015-04-19 19:36:28
Дата пометки : UTC 2015-04-19 19:36:28

Видео
Идентификатор : 1
Формат : AVC
Формат/Информация : Advanced Video Codec
Профиль формата : High@L4.1
Параметр CABAC формата : Да
Параметр ReFrames формата : 4 кадра
Идентификатор кодека : avc1
Идентификатор кодека/Информация : Advanced Video Coding
Продолжительность : 24 м.
Битрейт : 1333 Кбит/сек
Максимальный битрейт : 14,5 Мбит/сек
Ширина : 1280 пикселей
Высота : 720 пикселей
Соотношение сторон : 16:9
Режим частоты кадров : Постоянный
Частота кадров : 23,976 кадра/сек
Цветовое пространство : YUV
Субдискретизация насыщенности : 4:2:0
Битовая глубина : 8 бит
Тип развёртки : Прогрессивная
Бит/(Пиксели*Кадры) : 0.060
Размер потока : 229 Мбайт (87%)
Заголовок : 264:fps=23.976@GPAC0.5.1-DEV-rev4929
Библиотека кодирования : x264 core 129 r2245+729M 1a52e03
Настройки программы : cabac=1 / ref=4 / deblock=1:1:-1 / analyse=0x3:0x113 / me=umh / subme=9 / psy=1 / fade_compensate=0.00 / psy_rd=1.00:0.00 / mixed_ref=1 / me_range=24 / chroma_me=1 / trellis=2 / 8x8dct=1 / cqm=0 / deadzone=21,11 / fast_pskip=1 / chroma_qp_offset=-2 / threads=8 / lookahead_threads=1 / sliced_threads=0 / nr=0 / decimate=1 / interlaced=0 / bluray_compat=0 / constrained_intra=0 / fgo=0 / bframes=9 / b_pyramid=2 / b_adapt=2 / b_bias=0 / direct=1 / weightb=1 / open_gop=0 / weightp=2 / keyint=240 / keyint_min=24 / scenecut=40 / intra_refresh=0 / rc=crf / mbtree=0 / crf=18.5 / qcomp=0.72 / qpmin=0 / qpmax=69 / qpstep=4 / ip_ratio=1.40 / pb_ratio=1.30 / aq=1:0.85
Дата кодирования : UTC 2015-04-19 19:36:28
Дата пометки : UTC 2015-04-19 19:36:31
Основные цвета : BT.709
Характеристики трансфера : BT.709
Коэффициенты матрицы : BT.709

Аудио
Идентификатор : 2
Формат : AAC
Формат/Информация : Advanced Audio Codec
Профиль формата : LC
Идентификатор кодека : 40
Продолжительность : 24 м.
Вид битрейта : Переменный
Битрейт : 192 Кбит/сек
Максимальный битрейт : 240 Кбит/сек
Каналы : 2 канала
Расположение каналов : Front: L R
Частота : 48,0 КГц
Метод сжатия : С потерями
Размер потока : 32,9 Мбайт (13%)
Язык : Japanese
Дата кодирования : UTC 2015-04-19 15:06:05
Дата пометки : UTC 2015-04-19 19:36:31


Отличия от других раздач
- [url=...4990504]этой[/url]
Наличие озвучки

Трекер:  [ 22-Апр-2015 16:30 ]

  

Скачать .torrent

Размер .torrent файла 12 KB


Размер: 296 MB
Хэш (hash) релиза: 5417d127d6282f6c94f7fa7783b840caffed4dc9
Подписка на обновления:

Торренты, похожие на Рай в серых тонах Grisaia no Rakuen скачать торрент

Форум Название Автор Размер S L Добавлен
Аниме | HD Rips ·· Рай в серых тонах / Grisaia no Rakuen / The Eden of Grisaia / Le Eden de la Grisaia (Танака Мотоки) [TV+Special] [Без хардсаба] [01-06+3 из 10+5] [JAP+SUB] & [01-06+0 из 10+5] [RUS(ext)] [2015 г., драма, романтика, BDRip] [720p] Galfimbul 19354161411.8 GB 0 0 1447245282

15:34

11-Ноя-15

Аниме | HD Rips ·· Рай в серых тонах / Grisaia no Rakuen / The Eden of Grisaia / Le Eden de la Grisaia (Танака Мотоки) [TV+Special] [Без хардсаба] [01-06+3 из 10+5] [JAP+SUB] & [01-06+0 из 10+5] [RUS(ext)] [2015 г., драма, романтика, BDRip] [1080p] Galfimbul 37212309533.47 GB 0 0 1447245278

15:34

11-Ноя-15

Аниме | HD Rips ·· Рай в серых тонах / Grisaia no Rakuen / The Eden of Grisaia (Танака Мотоки) [TV+Special] [Без хардсаба] [10+5 из 10+5] [JAP+SUB] & [10+0 из 10+5] [RUS(ext)] [2015 г., приключения, драма, этти, BDRip] [1080p] Galfimbul 1212515011011.29 GB 0 0 1451930563

21:02

4-Янв-16

Аниме | Rips ·· Рай в серых тонах / Grisaia no Rakuen / The Eden of Grisaia [TV] [01 из >11] [Без хардсаба] [RUS(int), JAP+SUB] [2015 г., романтика, драма, HDTVRip] [HWP] Galfimbul 221235731211 MB 0 0 1429969873

16:51

25-Апр-15

Аниме | HD Rips ·· Рай в серых тонах / Grisaia no Rakuen [TV+Special] [Без хардсаба] [10+5 из 10+5] [JAP+SUB] & [10+0 из 10+5] [RUS(int)] [2015 г., школа, романтика, драма, психологический, BDRip] [720p] Galfimbul 30681964672.86 GB 0 0 1451595722

00:02

1-Янв-16

Аниме | HD Rips ·· Рай в серых тонах / Grisaia no Rakuen (Танака Мотоки) [TV+Special] [без хардсаба] [6+2 из 10+5] [JAP+SUB] & [6+0 из 10+5] [RUS(ext)] [2015 г., драма, романтика, BDRemux] [1080p] Galfimbul 3564123876233.19 GB 0 0 1446983706

14:55

8-Ноя-15

Аниме | HD Rips ·· Рай в Серых Тонах / Grisaia no Rakuen [TV] [1-4+2 из 10+5] [Без хардсаба] [JAP, SUB] [2015 г., драма, романтика, BDRip] [1080p] Galfimbul 24212815752.25 GB 0 0 1446596871

03:27

4-Ноя-15

Аниме | HD Rips ·· Рай в серых тонах / Grisaia no Rakuen [TV] [4 из 10] [Без хардсаба] [JAP+SUB] [2015 г., психологический, драма, сейнен, WEBRip] [1080p] Galfimbul 22717615452.12 GB 0 0 1431850550

11:15

17-Май-15

Аниме | HD Rips ·· Рай в серых тонах / Grisaia no Rakuen [TV] [01 из 10] [Без хардсаба] [JAP+SUB] [2015 г., психологический, драма, сейнен, WEBRip] [720p] Galfimbul 338121040322 MB 0 0 1429550582

20:23

20-Апр-15

Еще никто не оставлял запись к записи скачать торрент Рай в серых тонах Grisaia no Rakuen . Будь первым!

!Обратная связь