Скачать через торрент Ниндзяборец Ninja Slayer From Animation бесплатно Аниме Все серии на русском torrent

Если у вас наблюдаются проблемы со скриншотами, переходом по ссылками, скачиванием торрентов - проблемы в блокировщике рекламы AdBlock. #хорошегоДня!


Статистика раздачи
Размер:  170 MB   |    Зарегистрирован:  2 года 5 месяцев   |    .torrent скачан:  38 раз   |   
Раздают:  1  
   
Загрузка...
 
Автор Сообщение

Galfimbul

avatar Galfimbul


Ниндзяборец / Ninja Slayer From Animation

Страна: Япония / США
Год выпуска: 2015 г.
Жанр: фантастика, боевик
Тип: ONA
Продолжительность: TV (26 эп.), ~13 мин.
Режиссер: Амэмия Акира
Студия: Trigger

Описание:
Ниндзя... Ниндзя были ... беспощадные полубоги, правящие в Японии с их каратэ в веке ниндзя спокойствия. Но "некоторые" совершил запрещенный вид харакири, хранящий свою душу на Кинкаку Храме для будущего воскресения. Их потерял история фальсифицируется и скрытая и правда об этих ниндзя был давно забыли.
Теперь, в будущем, где универсализация кибернетической техники и электронных сетей Бог, вдруг, зловещие ниндзя души, воскрес из тысяч прошлых лет развязали на темных теней Нео-Сайтама. Фужыкидо Кэнжы, является офисный планктон, чья жена и ребенок погибли в ниндзя борьбе за сферы влияния. В щеткой с его собственной смерти, Фужыкидо обладают загадочной души ниндзя. Фужыкидо обманывает смерть и становится Ниндзяборцем. Тёмному жнецу суждено убить злого ниндзя, совершенное в личную войну мести.

Качество: WEBRip
Тип релиза: Без хардсаба
Формат видео: mp4
Релиз/Автор рипа: seiya
Видео: h264, 1280x720 (960x720), ~1 776 kbps, 23.976 fps, 8bit
Аудио: AAC, ~128 Kbps, 44.1 KHz, 2ch Язык: Японский
Субтитры: внешние, .ass, Язык: русский ; Перевод: Timecraft+Ambiente
Перевод — AleX_MytH
Редактура — BO3DYX
1. РОЖДЕННЫЙ В АЛОМ И ЧЕРНОМ
MediaInfo:
General
Complete name                            : E:\Torrents\Ninja Slayer [ WEBRip 720p]\Ninja Slayer - 01 [720p].mp4
Format                                   : MPEG-4
Format profile                           : Base Media
Codec ID                                 : isom
File size                                : 170 MiB
Duration                                 : 12mn 27s
Overall bit rate mode                    : Variable
Overall bit rate                         : 1 907 Kbps
Encoded date                             : UTC 2015-04-19 16:45:30
Tagged date                              : UTC 2015-04-19 16:45:30
Writing application                      : Yamb 2.1.0.0 [http://yamb.unite-video.com]

Video
ID                                       : 1
Format                                   : AVC
Format/Info                              : Advanced Video Codec
Format profile                           : High@L4.0
Format settings, CABAC                   : Yes
Format settings, ReFrames                : 6 frames
Codec ID                                 : avc1
Codec ID/Info                            : Advanced Video Coding
Duration                                 : 12mn 27s
Bit rate                                 : 1 776 Kbps
Maximum bit rate                         : 8 536 Kbps
Width                                    : 1 280 pixels
Height                                   : 720 pixels
Display aspect ratio                     : 16:9
Frame rate mode                          : Constant
Frame rate                               : 23.976 fps
Color space                              : YUV
Chroma subsampling                       : 4:2:0
Bit depth                                : 8 bits
Scan type                                : Progressive
Bits/(Pixel*Frame)                       : 0.080
Stream size                              : 158 MiB (93%)
Writing library                          : x264 core 120 r2120 0c7dab9
Encoding settings                        : cabac=1 / ref=6 / deblock=1:1:1 / analyse=0x3:0x113 / me=umh / subme=8 / psy=1 / psy_rd=0.40:0.00 / mixed_ref=1 / me_range=16 / chroma_me=1 / trellis=1 / 8x8dct=1 / cqm=0 / deadzone=21,11 / fast_pskip=1 / chroma_qp_offset=-2 / threads=4 / sliced_threads=0 / nr=0 / decimate=1 / interlaced=0 / bluray_compat=0 / constrained_intra=0 / bframes=3 / b_pyramid=2 / b_adapt=2 / b_bias=0 / direct=3 / weightb=1 / open_gop=0 / weightp=2 / keyint=250 / keyint_min=23 / scenecut=40 / intra_refresh=0 / rc_lookahead=50 / rc=2pass / mbtree=1 / bitrate=1776 / ratetol=1.0 / qcomp=0.60 / qpmin=0 / qpmax=69 / qpstep=4 / cplxblur=20.0 / qblur=0.5 / vbv_maxrate=3552 / vbv_bufsize=8880 / nal_hrd=none / ip_ratio=1.40 / aq=1:0.60
Encoded date                             : UTC 2015-04-19 16:45:30
Tagged date                              : UTC 2015-04-19 16:45:33

Audio
ID                                       : 2
Format                                   : AAC
Format/Info                              : Advanced Audio Codec
Format profile                           : LC
Codec ID                                 : 40
Duration                                 : 12mn 27s
Bit rate mode                            : Variable
Bit rate                                 : 128 Kbps
Maximum bit rate                         : 135 Kbps
Channel(s)                               : 2 channels
Channel positions                        : Front: L R
Sampling rate                            : 44.1 KHz
Compression mode                         : Lossy
Stream size                              : 11.4 MiB (7%)
Encoded date                             : UTC 2015-04-19 16:45:32
Tagged date                              : UTC 2015-04-19 16:45:33


Трекер:  [ 20-Апр-2015 20:30 ]

  

Скачать .torrent

Размер .torrent файла 14 KB


Размер: 170 MB
Хэш (hash) релиза: 6ea574d01905889a29554ff2c77e97bcac574717
Подписка на обновления:

Торренты, похожие на Ниндзяборец Ninja Slayer From Animation скачать торрент

Форум Название Автор Размер S L Добавлен
Аниме | HD Rips ·· Ниндзяборец / Ninja Slayer From Animation / Охотник на ниндзя [ONA] [01 из 26] [Без хардсаба] [RUS(int), JAP] [2015 г., фантастика, боевик, приключения, WEBRip] [720p] Galfimbul 196146192187 MB 0 0 1429730358

22:19

22-Апр-15

Еще никто не оставлял запись к записи скачать торрент Ниндзяборец Ninja Slayer From Animation . Будь первым!

!Обратная связь