Скачать через торрент Демоны старшей школы TV-3 High School DxD Born бесплатно Аниме Все серии на русском torrent

Если у вас наблюдаются проблемы со скриншотами, переходом по ссылками, скачиванием торрентов - проблемы в блокировщике рекламы AdBlock. #хорошегоДня!


Статистика раздачи
Размер:  411 MB   |    Зарегистрирован:  2 года 5 месяцев   |    .torrent скачан:  30 раз   |   
Раздают:  1  
   
Загрузка...
 
Автор Сообщение

Galfimbul

avatar Galfimbul


Демоны старшей школы TV-3 / High School DxD Born

Страна: Япония
Год выпуска: 2015 г.
Жанр: демоны, фентези, гарем, приключения, эччи, мистика, комедия
Тип: TV
Продолжительность: 12 эп. по 25 мин

Режиссер: Янагисава Тэцуя (Yanagisawa Tetsuya)
Студия: TNK

Описание:
Третий сезон про "Сисько-Дракона".

Качество: HDTVRip
Тип релиза: Без хардсаба
Формат видео: MP4
Наличие линковки: Нет
Релиз/Автор рипа: Leopard-Raws
Видео: H264, 1280x720, 2200 kbps, 23.976 fps, 8 bit
Аудио: AAC, 192 kbps, 48000 Hz, stereo Язык Японский
Субтитры: ass, внешним файлом Язык субтитров русский ; Перевод: Angara

Позже вставлю нормальные сабы.

Не забываем "благодарить" и писать комментарии. Это стимулирует дальнейшие раздачи.
General
Complete name               : E:\ongoing\High School DxD Born\[Leopard-Raws] High School DxD Born - 01 RAW (ATX 1280x720 x264 AAC).mp4
Format                      : MPEG-4
Format profile              : Base Media
Codec ID                    : isom
File size                   : 411 MiB
Duration                    : 24mn 0s
Overall bit rate mode       : Variable
Overall bit rate            : 2 397 Kbps
Encoded date                : UTC 2015-04-04 16:52:35
Tagged date                 : UTC 2015-04-04 16:52:35

Video
ID                          : 1
Format                      : AVC
Format/Info                 : Advanced Video Codec
Format profile              : High@L4.1
Format settings, CABAC      : Yes
Format settings, ReFrames   : 4 frames
Codec ID                    : avc1
Codec ID/Info               : Advanced Video Coding
Duration                    : 24mn 0s
Bit rate                    : 2 201 Kbps
Maximum bit rate            : 10.5 Mbps
Width                       : 1 280 pixels
Height                      : 720 pixels
Display aspect ratio        : 16:9
Frame rate mode             : Constant
Frame rate                  : 23.976 fps
Color space                 : YUV
Chroma subsampling          : 4:2:0
Bit depth                   : 8 bits
Scan type                   : Progressive
Bits/(Pixel*Frame)          : 0.100
Stream size                 : 378 MiB (92%)
Title                       : 264:fps=23.976@GPAC0.5.1-DEV-rev4929
Writing library             : x264 core 129 r2245+729M 1a52e03
Encoding settings           : cabac=1 / ref=4 / deblock=1:1:-1 / analyse=0x3:0x113 / me=umh / subme=9 / psy=1 / fade_compensate=0.00 / psy_rd=1.00:0.00 / mixed_ref=1 / me_range=24 / chroma_me=1 / trellis=2 / 8x8dct=1 / cqm=0 / deadzone=21,11 / fast_pskip=1 / chroma_qp_offset=-2 / threads=8 / lookahead_threads=1 / sliced_threads=0 / nr=0 / decimate=1 / interlaced=0 / bluray_compat=0 / constrained_intra=0 / fgo=0 / bframes=9 / b_pyramid=2 / b_adapt=2 / b_bias=0 / direct=1 / weightb=1 / open_gop=0 / weightp=2 / keyint=240 / keyint_min=24 / scenecut=40 / intra_refresh=0 / rc=crf / mbtree=0 / crf=18.5 / qcomp=0.72 / qpmin=0 / qpmax=69 / qpstep=4 / ip_ratio=1.40 / pb_ratio=1.30 / aq=1:0.85
Encoded date                : UTC 2015-04-04 16:52:35
Tagged date                 : UTC 2015-04-04 16:52:39
Color primaries             : BT.709
Transfer characteristics    : BT.709
Matrix coefficients         : BT.709
Color range                 : Limited

Audio
ID                          : 2
Format                      : AAC
Format/Info                 : Advanced Audio Codec
Format profile              : LC
Codec ID                    : 40
Duration                    : 24mn 0s
Bit rate mode               : Variable
Bit rate                    : 192 Kbps
Maximum bit rate            : 232 Kbps
Channel(s)                  : 2 channels
Channel positions           : Front: L R
Sampling rate               : 48.0 KHz
Compression mode            : Lossy
Stream size                 : 33.0 MiB (8%)
Language                    : Japanese
Encoded date                : UTC 2015-04-04 15:03:54
Tagged date                 : UTC 2015-04-04 16:52:39
01 Отправимся в Подземный мир на лето 04.04.2015
02


Трекер:  [ 05-Апр-2015 19:00 ]

  

Скачать .torrent

Размер .torrent файла 16 KB


Размер: 411 MB
Хэш (hash) релиза: 696854caf53716aebb4ee6e334a68cc55d6721d1
Подписка на обновления:

Торренты, похожие на Демоны старшей школы TV-3 High School DxD Born скачать торрент

Форум Название Автор Размер S L Добавлен
Аниме | HD Rips ·· Демоны старшей школы (ТВ-3) / High School DxD Born (Янагисава Тэцуя) [TV+Special] [4+2 из 12+6] [Без хардсаба] [JAP+SUB] [2015 г., приключения, мистика, этти, комедия, демоны, BDRemux][1080p] Galfimbul 3204927951129.85 GB 0 0 1443348227

13:03

27-Сен-15

Аниме | HD Rips ·· Демоны старшей школы (ТВ-3) / High School DxD Born [TV] [1 из 12] [Без хардсаба] [JAP, SUB] [2015 г., демоны, фентези, гарем, приключения, эччи, мистика, комедия, HDTVRip] [720p] Galfimbul 431450907411 MB 0 0 1428286736

05:18

6-Апр-15

Аниме | HD Rips ·· Демоны старшей школы (ТВ-3) / High School DxD Born (Янагисава Тэцуя) [TV+Special] [Без хардсаба] [01-10+3 из 12+6] [JAP+SUB] & [01-10+0 из 12+6] [RUS(ext)][2015 г., приключения, мистика, этти, комедия, BDRemux][1080p] Galfimbul 8072433401675.18 GB 0 0 1455448326

14:12

14-Фев-16

Аниме | HD Rips ·· Демоны старшей школы (ТВ-3) / High School DxD Born (Янагисава Тэцуя) [TV+Special] [Без хардсаба] [01-08+3 из 12+6] [JAP+SUB] & [01-08+0 из 12+6] [RUS(ext)] [2015 г., приключения, комедия, этти, BDRip] [720p] Galfimbul 44699690024.16 GB 0 0 1449698350

00:59

10-Дек-15

Аниме | HD Rips ·· Демоны старшей школы (ТВ-3) / High School DxD Born (Янагисава Тэцуя) [TV+Special] [Без хардсаба] [12+6 из 12+6] [RUS(ext),JAP+SUB][2015 г., приключения, мистика, этти, комедия, BDRemux][1080p] Galfimbul 9813892105591.4 GB 0 0 1473863196

17:26

14-Сен-16

Аниме | HD Rips ·· Демоны старшей школы (ТВ-3) / High School DxD Born (Янагисава Тэцуя) [TV+Special] [12+6 из 12+6] [без хардсаба] [RUS(ext), JAP+SUB] [2015 г., комедия, этти, BDRip] [720p] Galfimbul 1185959533611.05 GB 0 0 1465667118

20:45

11-Июн-16

Аниме | HD Rips ·· Демоны старшей школы (ТВ-3) / High School DxD Born (Янагисава Тэцуя) [TV+Special] [Без хардсаба] [12+6 из 12+6] [RUS(ext),JAP+SUB][2015 г., приключения, мистика, этти, комедия, BDRemux][1080p] Galfimbul 9814245810191.4 GB 0 0 1461401969

11:59

23-Апр-16

Аниме | HD Rips ·· Демоны старшей школы (ТВ-3) / High School DxD Born (Янагисава Тэцуя) [TV+Special] [Без хардсаба] [01-04+2 из 12+6] [JAP+SUB] & [01-04+0 из 12+6] [RUS(ext)] [2015 г., приключения, комедия, этти, BDRip] [1080p] Galfimbul 1139291678910.61 GB 0 0 1449706264

03:11

10-Дек-15

Аниме | Rips ·· Демоны старшей школы (ТВ-3) / High School DxD Born [TV] [01 из >12] [Без хардсаба] [RUS(int), JAP+SUB] [2015 г., приключения, комедия, этти, HDTVRip] [HWP] Galfimbul 340707841325 MB 0 0 1428927651

15:20

13-Апр-15

Аниме | HD Rips ·· Старшая школа: Демоны против падших ТВ-3 / High School DxD Born [TV] [10 из 12] [Без хардсаба] [RUS(int)] [2015 г., приключения, комедия, этти, HDTVRip] [720p] Galfimbul 42541457913.96 GB 0 0 1434461585

16:33

16-Июн-15

Аниме | Rips ·· Демоны старшей школы 3 / High School DxD BorN [TV] [01-07 из 12] [Без хардсаба] [RUS(ext), JAP, SUB] [2015 г., Экшн, Комедия, Демоны, Романтика, Школа, Приключения, Этти, Гарем, HDTVRip] [720p] Galfimbul 32083998582.99 GB 0 0 1438268359

17:59

30-Июл-15

Аниме | HD Rips ·· Демоны старшей школы: Рождение (ТВ-3) / High School DxD BorN (Янагисава Тэцуя) [TV][5 из 12][без хардсаба][RUS(int)][2015 г., боевик, комедия, демоны, этти, романтика, школа, сёнэн, гарем, HDTVRip][720p] Galfimbul 23231615452.16 GB 0 0 1431087666

15:21

8-Май-15

Еще никто не оставлял запись к записи скачать торрент Демоны старшей школы TV-3 High School DxD Born . Будь первым!

!Обратная связь