Скачать через торрент музыку Путешествия Гулливера Gullivers Travels бесплатно без регистрации torrent

Если у вас наблюдаются проблемы со скриншотами, переходом по ссылками, скачиванием торрентов - проблемы в блокировщике рекламы AdBlock. #хорошегоДня!


Статистика раздачи
Размер:  271 MB   |    Зарегистрирован:  2 года 5 месяцев   |    .torrent скачан:  27 раз   |   
Раздают:  1  
   
Загрузка...
 
Автор Сообщение

Galfimbul

avatar Galfimbul


Путешествия Гулливера / Gulliver's Travels
Жанр: Score
Композитор: Henry Jackman
Год выпуска диска: 2010
Производитель диска: P&O, Germany
Издатель (лейбл): Varèse Sarabande
Номер по каталогу: VSD-7076
Аудиокодек: FLAC (*.flac)
Тип рипа: tracks+.cue
Битрейт аудио: lossless
Продолжительность: 00:49:24
Источник: собственный рип
Наличие сканов в содержимом раздачи: да, 600 dpi
Ссылки: Кинопоиск | IMDB | Wikipedia | SoundtrackCollector
MP3: [url=...4943874](Score) Путешествия Гулливера / Gulliver's Travels (Henry Jackman) - 2010, MP3 (tracks) 320 kbps[/url]
Henry Jackman на трекере: [url=...786&nm=Henry+Jackman]lossless[/url] | [url=...785&nm=Henry+Jackman]lossy[/url]
01. A Day In The Life Of Lemuel Gulliver [0:02:22.74]
02. Blatant Plagiarism [0:01:16.33]
03. The Bermuda Triangle [0:02:41.20]
04. Behold The Beast [0:03:00.52]
05. Involuntary Servitude [0:01:45.52]
06. Nobody Save The Princess! [0:03:37.40]
07. Delusions Of Grandeur [0:02:31.12]
08. Dreaming Of A Princess [0:01:42.14]
09. I Have Come To Court You [0:01:31.54]
10. Forlorn [0:03:28.74]
11. The Blefuscian Armada [0:04:11.27]
12. How To Woo A Princess [0:01:18.53]
13. Edwardian Hissy-Fit [0:02:16.53]
14. Persona Non Grata [0:03:42.35]
15. The Island Where We Dare Not Go [0:03:09.62]
16. Take Of That Dress, And Let's Get Outta Here [0:02:39.59]
17. Ein Roboterleben [0:07:05.04]
18. Farewell To Lilliput [0:01:01.01]
Exact Audio Copy V1.0 beta 3 from 29. August 2011

EAC extraction logfile from 4. April 2015, 8:57

Henry Jackman / Gulliver's Travels

Used drive : PLEXTOR CD-R PX-230A Adapter: 0 ID: 0

Read mode : SecureUtilize accurate stream : YesDefeat audio cache : YesMake use of C2 pointers : No

Read offset correction : 738Overread into Lead-In and Lead-Out : NoFill up missing offset samples with silence : YesDelete leading and trailing silent blocks : NoNull samples used in CRC calculations : YesUsed interface : Native Win32 interface for Win NT & 2000Gap handling : Appended to previous track

Used output format : User Defined EncoderSelected bitrate : 1024 kBit/sQuality : HighAdd ID3 tag : NoCommand line compressor : C:\Program Files\Exact Audio Copy\Flac\flac.exeAdditional command line options : -6 -V -T "ARTIST=%artist%" -T "TITLE=%title%" -T "ALBUM=%albumtitle%" -T "DATE=%year%"-T "TRACKNUMBER=%tracknr%" -T "GENRE=%genre%" -T "COMMENT=%comment%" -T "ALBUMARTIST=%albuminterpret%" -T "COMPOSER=%composer%"-T "DISCNUMBER=%cdnumber%" -T "TOTALDISCS=%totalcds%" -T "TOTALTRACKS=%numtracks%" %source% -o %dest%

TOC of the extracted CD

Track | Start | Length | Start sector | End sector --------------------------------------------------------- 1 | 0:00.00 | 2:22.74 | 0 | 10723 2 | 2:22.74 | 1:16.33 | 10724 | 16456 3 | 3:39.32 | 2:41.20 | 16457 | 28551 4 | 6:20.52 | 3:00.52 | 28552 | 42103 5 | 9:21.29 | 1:45.52 | 42104 | 50030 6 | 11:07.06 | 3:37.40 | 50031 | 66345 7 | 14:44.46 | 2:31.12 | 66346 | 77682 8 | 17:15.58 | 1:42.14 | 77683 | 85346 9 | 18:57.72 | 1:31.54 | 85347 | 92225 10 | 20:29.51 | 3:28.74 | 92226 | 107899 11 | 23:58.50 | 4:11.27 | 107900 | 126751 12 | 28:10.02 | 1:18.53 | 126752 | 132654 13 | 29:28.55 | 2:16.53 | 132655 | 142907 14 | 31:45.33 | 3:42.35 | 142908 | 159592 15 | 35:27.68 | 3:09.62 | 159593 | 173829 16 | 38:37.55 | 2:39.59 | 173830 | 185813 17 | 41:17.39 | 7:05.04 | 185814 | 217692 18 | 48:22.43 | 1:01.01 | 217693 | 222268

Track 1

Filename C:\Music\01 - A Day In The Life Of Lemuel Gulliver.wav

Pre-gap length 0:00:02.00

Peak level 99.1 % Extraction speed 4.4 X Track quality 100.0 % Test CRC 369B650A Copy CRC 369B650A Accurately ripped (confidence 1) [AFA7F6BE] (AR v1) Copy OK

Track 2

Filename C:\Music\02 - Blatant Plagiarism.wav

Pre-gap length 0:00:02.00

Peak level 99.2 % Extraction speed 4.4 X Track quality 100.0 % Test CRC 30FE0382 Copy CRC 30FE0382 Accurately ripped (confidence 1) [D8CB1586] (AR v1) Copy OK

Track 3

Filename C:\Music\03 - The Bermuda Triangle.wav

Pre-gap length 0:00:03.00

Peak level 100.0 % Extraction speed 5.3 X Track quality 100.0 % Test CRC DFD77142 Copy CRC DFD77142 Accurately ripped (confidence 1) [37776B43] (AR v1) Copy OK

Track 4

Filename C:\Music\04 - Behold The Beast.wav

Pre-gap length 0:00:02.00

Peak level 100.0 % Extraction speed 5.2 X Track quality 100.0 % Test CRC 697CB216 Copy CRC 697CB216 Accurately ripped (confidence 1) [CB2A27C0] (AR v1) Copy OK

Track 5

Filename C:\Music\05 - Involuntary Servitude.wav

Pre-gap length 0:00:00.52

Peak level 99.4 % Extraction speed 3.3 X Track quality 100.0 % Test CRC 898A9020 Copy CRC 898A9020 Accurately ripped (confidence 1) [B4309146] (AR v1) Copy OK

Track 6

Filename C:\Music\06 - Nobody Save The Princess!.wav

Pre-gap length 0:00:01.74

Peak level 100.0 % Extraction speed 5.5 X Track quality 100.0 % Test CRC B9E63E60 Copy CRC B9E63E60 Accurately ripped (confidence 1) [1886FBF2] (AR v1) Copy OK

Track 7

Filename C:\Music\07 - Delusions Of Grandeur.wav

Pre-gap length 0:00:01.09

Peak level 99.2 % Extraction speed 5.2 X Track quality 100.0 % Test CRC 6B64EDFC Copy CRC 6B64EDFC Accurately ripped (confidence 1) [7769BBB5] (AR v1) Copy OK

Track 8

Filename C:\Music\08 - Dreaming Of A Princess.wav

Pre-gap length 0:00:00.12

Peak level 43.3 % Extraction speed 4.8 X Track quality 100.0 % Test CRC 478FD6AB Copy CRC 478FD6AB Accurately ripped (confidence 1) [E92421E8] (AR v1) Copy OK

Track 9

Filename C:\Music\09 - I Have Come To Court You.wav

Pre-gap length 0:00:01.11

Peak level 100.0 % Extraction speed 4.7 X Track quality 100.0 % Test CRC 73A79567 Copy CRC 73A79567 Accurately ripped (confidence 1) [210ECFCC] (AR v1) Copy OK

Track 10

Filename C:\Music\10 - Forlorn.wav

Pre-gap length 0:00:00.41

Peak level 51.4 % Extraction speed 5.5 X Track quality 100.0 % Test CRC F34E3EE4 Copy CRC F34E3EE4 Accurately ripped (confidence 1) [1D14EDFE] (AR v1) Copy OK

Track 11

Filename C:\Music\11 - The Blefuscian Armada.wav

Pre-gap length 0:00:00.17

Peak level 99.7 % Extraction speed 5.5 X Track quality 100.0 % Test CRC D3503367 Copy CRC D3503367 Accurately ripped (confidence 1) [604ECCC1] (AR v1) Copy OK

Track 12

Filename C:\Music\12 - How To Woo A Princess.wav

Pre-gap length 0:00:01.74

Peak level 69.8 % Extraction speed 3.6 X Track quality 99.8 % Test CRC 36A9638D Copy CRC 36A9638D Accurately ripped (confidence 1) [A346D02B] (AR v1) Copy OK

Track 13

Filename C:\Music\13 - Edwardian Hissy-Fit.wav

Pre-gap length 0:00:00.22

Peak level 100.0 % Extraction speed 5.1 X Track quality 100.0 % Test CRC CEB860C4 Copy CRC CEB860C4 Accurately ripped (confidence 1) [FDDE5A35] (AR v1) Copy OK

Track 14

Filename C:\Music\14 - Persona Non Grata.wav

Pre-gap length 0:00:02.29

Peak level 99.6 % Extraction speed 5.4 X Track quality 100.0 % Test CRC 52654702 Copy CRC 52654702 Accurately ripped (confidence 1) [BD74E696] (AR v1) Copy OK

Track 15

Filename C:\Music\15 - The Island Where We Dare Not Go.wav

Pre-gap length 0:00:01.24

Peak level 100.0 % Extraction speed 5.4 X Track quality 100.0 % Test CRC 0A048E79 Copy CRC 0A048E79 Accurately ripped (confidence 1) [26EF3E30] (AR v1) Copy OK

Track 16

Filename C:\Music\16 - Take Of That Dress, And Let's Get Outta Here.wav

Pre-gap length 0:00:01.74

Peak level 100.0 % Extraction speed 5.2 X Track quality 100.0 % Test CRC 03479B36 Copy CRC 03479B36 Accurately ripped (confidence 1) [2F60EB42] (AR v1) Copy OK

Track 17

Filename C:\Music\17 - Ein Roboterleben.wav

Pre-gap length 0:00:01.74

Peak level 100.0 % Extraction speed 5.8 X Track quality 100.0 % Test CRC F2E57DDE Copy CRC F2E57DDE Accurately ripped (confidence 1) [384BE325] (AR v1) Copy OK

Track 18

Filename C:\Music\18 - Farewell To Lilliput.wav

Pre-gap length 0:00:00.18

Peak level 98.8 % Extraction speed 3.6 X Track quality 100.0 % Test CRC 0B0D6270 Copy CRC 0B0D6270 Accurately ripped (confidence 1) [F0AFDCE4] (AR v1) Copy OK

All tracks accurately ripped

No errors occurred

End of status report

==== Log checksum 20BE92B95041397B497D55B7CDF22E8B024DC92995A21C3A414BF105F26386FC ====
REM GENRE SoundtrackREM DATE 2010REM DISCID F30B9312REM COMMENT "ExactAudioCopy v1.0b3"PERFORMER "Henry Jackman"TITLE "Gulliver's Travels"FILE "01 - A Day In The Life Of Lemuel Gulliver.wav" WAVE TRACK 01 AUDIO TITLE "A Day In The Life Of Lemuel Gulliver" PERFORMER "Henry Jackman" INDEX 01 00:00:00 TRACK 02 AUDIO TITLE "Blatant Plagiarism" PERFORMER "Henry Jackman" INDEX 00 02:20:74FILE "02 - Blatant Plagiarism.wav" WAVE INDEX 01 00:00:00 TRACK 03 AUDIO TITLE "The Bermuda Triangle" PERFORMER "Henry Jackman" INDEX 00 01:13:33FILE "03 - The Bermuda Triangle.wav" WAVE INDEX 01 00:00:00 TRACK 04 AUDIO TITLE "Behold The Beast" PERFORMER "Henry Jackman" INDEX 00 02:39:20FILE "04 - Behold The Beast.wav" WAVE INDEX 01 00:00:00 TRACK 05 AUDIO TITLE "Involuntary Servitude" PERFORMER "Henry Jackman" INDEX 00 03:00:00FILE "05 - Involuntary Servitude.wav" WAVE INDEX 01 00:00:00 TRACK 06 AUDIO TITLE "Nobody Save The Princess!" PERFORMER "Henry Jackman" INDEX 00 01:43:53FILE "06 - Nobody Save The Princess!.wav" WAVE INDEX 01 00:00:00 TRACK 07 AUDIO TITLE "Delusions Of Grandeur" PERFORMER "Henry Jackman" INDEX 00 03:36:31FILE "07 - Delusions Of Grandeur.wav" WAVE INDEX 01 00:00:00 TRACK 08 AUDIO TITLE "Dreaming Of A Princess" PERFORMER "Henry Jackman" INDEX 00 02:31:00FILE "08 - Dreaming Of A Princess.wav" WAVE INDEX 01 00:00:00 TRACK 09 AUDIO TITLE "I Have Come To Court You" PERFORMER "Henry Jackman" INDEX 00 01:41:03FILE "09 - I Have Come To Court You.wav" WAVE INDEX 01 00:00:00 TRACK 10 AUDIO TITLE "Forlorn" PERFORMER "Henry Jackman" INDEX 00 01:31:13FILE "10 - Forlorn.wav" WAVE INDEX 01 00:00:00 TRACK 11 AUDIO TITLE "The Blefuscian Armada" PERFORMER "Henry Jackman" INDEX 00 03:28:57FILE "11 - The Blefuscian Armada.wav" WAVE INDEX 01 00:00:00 TRACK 12 AUDIO TITLE "How To Woo A Princess" PERFORMER "Henry Jackman" INDEX 00 04:09:28FILE "12 - How To Woo A Princess.wav" WAVE INDEX 01 00:00:00 TRACK 13 AUDIO TITLE "Edwardian Hissy-Fit" PERFORMER "Henry Jackman" INDEX 00 01:18:31FILE "13 - Edwardian Hissy-Fit.wav" WAVE INDEX 01 00:00:00 TRACK 14 AUDIO TITLE "Persona Non Grata" PERFORMER "Henry Jackman" INDEX 00 02:14:24FILE "14 - Persona Non Grata.wav" WAVE INDEX 01 00:00:00 TRACK 15 AUDIO TITLE "The Island Where We Dare Not Go" PERFORMER "Henry Jackman" INDEX 00 03:41:11FILE "15 - The Island Where We Dare Not Go.wav" WAVE INDEX 01 00:00:00 TRACK 16 AUDIO TITLE "Take Of That Dress, And Let's Get Outta Here" PERFORMER "Henry Jackman" INDEX 00 03:07:63FILE "16 - Take Of That Dress, And Let's Get Outta Here.wav" WAVE INDEX 01 00:00:00 TRACK 17 AUDIO TITLE "Ein Roboterleben" PERFORMER "Henry Jackman" INDEX 00 02:37:60FILE "17 - Ein Roboterleben.wav" WAVE INDEX 01 00:00:00 TRACK 18 AUDIO TITLE "Farewell To Lilliput" PERFORMER "Henry Jackman" INDEX 00 07:04:61FILE "18 - Farewell To Lilliput.wav" WAVE INDEX 01 00:00:00


Трекер:  [ 04-Апр-2015 22:00 ]

  

Скачать .torrent

Размер .torrent файла 23 KB


Размер: 271 MB
Хэш (hash) релиза: 28ade9e4eb0821e904a7c0478a6730b0799dd29f

Торренты, похожие на Путешествия Гулливера Gullivers Travels скачать торрент

Форум Название Автор Размер S L Добавлен
Саундтреки к фильмам и мультфильмам (mp3) ·· (Score) Путешествия Гулливера / Gulliver's Travels (Henry Jackman) - 2010, MP3 (tracks) 320 kbps Galfimbul 139994271134 MB 0 0 1428175786

22:29

4-Апр-15

Еще никто не оставлял запись к записи скачать торрент Путешествия Гулливера Gullivers Travels . Будь первым!

!Обратная связь