Скачать через торрент музыку Фанатки на завтрак не остаются Groupies bleiben nicht zum Frühstück бесплатно без регистрации torrent

Если у вас наблюдаются проблемы со скриншотами, переходом по ссылками, скачиванием торрентов - проблемы в блокировщике рекламы AdBlock. #хорошегоДня!


Статистика раздачи
Размер:  309 MB   |    Зарегистрирован:  2 года 5 месяцев   |    .torrent скачан:  34 раза   |   
Раздают:  1  
   
Загрузка...
 
Автор Сообщение

Galfimbul

avatar Galfimbul


Фанатки на завтрак не остаются / Groupies bleiben nicht zum Frühstück
Жанр: Soundtrack
Год выпуска диска: 2010
Производитель диска: Warner Music Manufacturing, Germany
Издатель (лейбл): Warner Music Group
Номер по каталогу: 50524982305-2-5
Аудиокодек: FLAC (*.flac)
Тип рипа: tracks+.cue
Битрейт аудио: lossless
Продолжительность: 00:39:55
Источник: собственный рип
Наличие сканов в содержимом раздачи: да, 600 dpi
Ссылки: Кинопоиск | IMDB | Wikipedia | SoundtrackCollector
MP3: [url=...99999999999999999]coming soon[/url]
01. Berlin Mitte / Battlefield [0:03:18.71]
02. Berlin Mitte / Here she comes [0:02:21.55]
03. Berlin Mitte / Nicht ohne dich [0:03:33.67]
04. Jonathan Express / All for you [0:03:24.08]
05. Jonathan Express / This is the time [0:02:47.35]
06. Bananafishbones feat. Matthias Schmitz / Can't take my eyes off you [0:03:24.59]
07. The Green Carpets feat. Paule / Bigger than both of us [0:03:19.27]
08. Jonathan Express / Two steps [0:02:26.38]
09. The Land / Won't let go [0:03:14.52]
10. Berlin Mitte / Beautiful day [0:03:13.65]
11. The Land / Two lovers [0:02:44.27]
12. Berlin Mitte / Homerun [0:02:45.18]
13. Lila & ChriZ / Stumblin' in [0:03:19.43]
Exact Audio Copy V1.0 beta 3 from 29. August 2011

EAC extraction logfile from 3. April 2015, 13:46

Various Artists / Groupies bleiben nicht zum Frühstück

Used drive : PLEXTOR CD-R PX-230A Adapter: 0 ID: 0

Read mode : SecureUtilize accurate stream : YesDefeat audio cache : YesMake use of C2 pointers : No

Read offset correction : 738Overread into Lead-In and Lead-Out : NoFill up missing offset samples with silence : YesDelete leading and trailing silent blocks : NoNull samples used in CRC calculations : YesUsed interface : Native Win32 interface for Win NT & 2000Gap handling : Appended to previous track

Used output format : User Defined EncoderSelected bitrate : 1024 kBit/sQuality : HighAdd ID3 tag : NoCommand line compressor : C:\Program Files\Exact Audio Copy\Flac\flac.exeAdditional command line options : -6 -V -T "ARTIST=%artist%" -T "TITLE=%title%" -T "ALBUM=%albumtitle%" -T "DATE=%year%"-T "TRACKNUMBER=%tracknr%" -T "GENRE=%genre%" -T "COMMENT=%comment%" -T "ALBUMARTIST=%albuminterpret%" -T "COMPOSER=%composer%"-T "DISCNUMBER=%cdnumber%" -T "TOTALDISCS=%totalcds%" -T "TOTALTRACKS=%numtracks%" %source% -o %dest%

TOC of the extracted CD

Track | Start | Length | Start sector | End sector --------------------------------------------------------- 1 | 0:00.00 | 3:18.71 | 0 | 14920 2 | 3:18.71 | 2:21.55 | 14921 | 25550 3 | 5:40.51 | 3:33.67 | 25551 | 41592 4 | 9:14.43 | 3:24.08 | 41593 | 56900 5 | 12:38.51 | 2:47.35 | 56901 | 69460 6 | 15:26.11 | 3:24.59 | 69461 | 84819 7 | 18:50.70 | 3:19.27 | 84820 | 99771 8 | 22:10.22 | 2:26.38 | 99772 | 110759 9 | 24:36.60 | 3:14.52 | 110760 | 125361 10 | 27:51.37 | 3:13.65 | 125362 | 139901 11 | 31:05.27 | 2:44.27 | 139902 | 152228 12 | 33:49.54 | 2:45.18 | 152229 | 164621 13 | 36:34.72 | 3:19.43 | 164622 | 179589

Track 1

Filename C:\Music\01 - Berlin Mitte - Battlefield.wav

Pre-gap length 0:00:02.00

Peak level 100.0 % Extraction speed 4.5 X Track quality 100.0 % Test CRC 863957F1 Copy CRC 863957F1 Accurately ripped (confidence 4) [1451B8D3] (AR v2) Copy OK

Track 2

Filename C:\Music\02 - Berlin Mitte - Here she comes.wav

Pre-gap length 0:00:01.58

Peak level 98.8 % Extraction speed 4.1 X Track quality 99.9 % Test CRC 27FF5C15 Copy CRC 27FF5C15 Accurately ripped (confidence 4) [622C75EF] (AR v2) Copy OK

Track 3

Filename C:\Music\03 - Berlin Mitte - Nicht ohne dich.wav

Pre-gap length 0:00:01.65

Peak level 98.8 % Extraction speed 4.3 X Track quality 100.0 % Test CRC 4A72F08D Copy CRC 4A72F08D Accurately ripped (confidence 4) [FAEBCCBF] (AR v2) Copy OK

Track 4

Filename C:\Music\04 - Jonathan Express - All for you.wav

Pre-gap length 0:00:01.55

Peak level 98.8 % Extraction speed 5.2 X Track quality 100.0 % Test CRC 64461E2E Copy CRC 64461E2E Accurately ripped (confidence 4) [8CE7C1A5] (AR v2) Copy OK

Track 5

Filename C:\Music\05 - Jonathan Express - This is the time.wav

Pre-gap length 0:00:01.52

Peak level 98.8 % Extraction speed 4.9 X Track quality 100.0 % Test CRC 7640BA9B Copy CRC 7640BA9B Accurately ripped (confidence 4) [812E9D0D] (AR v2) Copy OK

Track 6

Filename C:\Music\06 - Bananafishbones feat. Matthias Schmitz - Can't take my eyes off you.wav

Pre-gap length 0:00:01.53

Peak level 98.6 % Extraction speed 4.4 X Track quality 100.0 % Test CRC F0C1AC19 Copy CRC F0C1AC19 Accurately ripped (confidence 4) [1BBC0BEE] (AR v2) Copy OK

Track 7

Filename C:\Music\07 - The Green Carpets feat. Paule - Bigger than both of us.wav

Pre-gap length 0:00:01.58

Peak level 98.8 % Extraction speed 4.6 X Track quality 100.0 % Test CRC F94E2067 Copy CRC F94E2067 Accurately ripped (confidence 4) [602BAB24] (AR v2) Copy OK

Track 8

Filename C:\Music\08 - Jonathan Express - Two steps.wav

Pre-gap length 0:00:01.55

Peak level 98.8 % Extraction speed 4.3 X Track quality 100.0 % Test CRC 117669D5 Copy CRC 117669D5 Accurately ripped (confidence 4) [C96726C2] (AR v2) Copy OK

Track 9

Filename C:\Music\09 - The Land - Won't let go.wav

Pre-gap length 0:00:01.57

Peak level 98.8 % Extraction speed 5.0 X Track quality 100.0 % Test CRC 2C0F03A5 Copy CRC 2C0F03A5 Accurately ripped (confidence 4) [5697550D] (AR v2) Copy OK

Track 10

Filename C:\Music\10 - Berlin Mitte - Beautiful day.wav

Pre-gap length 0:00:01.56

Peak level 98.8 % Extraction speed 4.2 X Track quality 99.9 % Test CRC 4DEC8073 Copy CRC 4DEC8073 Accurately ripped (confidence 4) [9BADC3D0] (AR v2) Copy OK

Track 11

Filename C:\Music\11 - The Land - Two lovers.wav

Pre-gap length 0:00:01.56

Peak level 98.8 % Extraction speed 4.0 X Track quality 99.9 % Test CRC 44A2D8D2 Copy CRC 44A2D8D2 Accurately ripped (confidence 4) [CB7A129A] (AR v2) Copy OK

Track 12

Filename C:\Music\12 - Berlin Mitte - Homerun.wav

Pre-gap length 0:00:01.53

Peak level 98.8 % Extraction speed 4.5 X Track quality 100.0 % Test CRC C2292AE0 Copy CRC C2292AE0 Accurately ripped (confidence 4) [60F4672B] (AR v2) Copy OK

Track 13

Filename C:\Music\13 - Lila & ChriZ - Stumblin' in.wav

Pre-gap length 0:00:01.51

Peak level 98.8 % Extraction speed 4.5 X Track quality 99.9 % Test CRC D16B80E9 Copy CRC D16B80E9 Accurately ripped (confidence 4) [AD650D13] (AR v2) Copy OK

All tracks accurately ripped

No errors occurred

End of status report

==== Log checksum B263D3A9776B64F72152565FE7A2571A3F6762F03AB5AD1BAE1A76397EB9ED15 ====
REM GENRE SoundtrackREM DATE 2010REM DISCID A0095A0DREM COMMENT "ExactAudioCopy v1.0b3"PERFORMER "Various Artists"TITLE "Groupies bleiben nicht zum Frьhstьck"FILE "01 - Berlin Mitte - Battlefield.wav" WAVE TRACK 01 AUDIO TITLE "Battlefield" PERFORMER "Berlin Mitte" INDEX 01 00:00:00 TRACK 02 AUDIO TITLE "Here she comes" PERFORMER "Berlin Mitte" INDEX 00 03:17:13FILE "02 - Berlin Mitte - Here she comes.wav" WAVE INDEX 01 00:00:00 TRACK 03 AUDIO TITLE "Nicht ohne dich" PERFORMER "Berlin Mitte" INDEX 00 02:19:65FILE "03 - Berlin Mitte - Nicht ohne dich.wav" WAVE INDEX 01 00:00:00 TRACK 04 AUDIO TITLE "All for you" PERFORMER "Jonathan Express" INDEX 00 03:32:12FILE "04 - Jonathan Express - All for you.wav" WAVE INDEX 01 00:00:00 TRACK 05 AUDIO TITLE "This is the time" PERFORMER "Jonathan Express" INDEX 00 03:22:31FILE "05 - Jonathan Express - This is the time.wav" WAVE INDEX 01 00:00:00 TRACK 06 AUDIO TITLE "Can't take my eyes off you" PERFORMER "Bananafishbones feat. Matthias Schmitz" INDEX 00 02:45:57FILE "06 - Bananafishbones feat. Matthias Schmitz - Can't take my eyes off you.wav" WAVE INDEX 01 00:00:00 TRACK 07 AUDIO TITLE "Bigger than both of us" PERFORMER "The Green Carpets feat. Paule" INDEX 00 03:23:01FILE "07 - The Green Carpets feat. Paule - Bigger than both of us.wav" WAVE INDEX 01 00:00:00 TRACK 08 AUDIO TITLE "Two steps" PERFORMER "Jonathan Express" INDEX 00 03:17:47FILE "08 - Jonathan Express - Two steps.wav" WAVE INDEX 01 00:00:00 TRACK 09 AUDIO TITLE "Won't let go" PERFORMER "The Land" INDEX 00 02:24:56FILE "09 - The Land - Won't let go.wav" WAVE INDEX 01 00:00:00 TRACK 10 AUDIO TITLE "Beautiful day" PERFORMER "Berlin Mitte" INDEX 00 03:12:71FILE "10 - Berlin Mitte - Beautiful day.wav" WAVE INDEX 01 00:00:00 TRACK 11 AUDIO TITLE "Two lovers" PERFORMER "The Land" INDEX 00 03:12:09FILE "11 - The Land - Two lovers.wav" WAVE INDEX 01 00:00:00 TRACK 12 AUDIO TITLE "Homerun" PERFORMER "Berlin Mitte" INDEX 00 02:42:49FILE "12 - Berlin Mitte - Homerun.wav" WAVE INDEX 01 00:00:00 TRACK 13 AUDIO TITLE "Stumblin' in" PERFORMER "Lila & ChriZ" INDEX 00 02:43:42FILE "13 - Lila & ChriZ - Stumblin' in.wav" WAVE INDEX 01 00:00:00


Трекер:  [ 03-Апр-2015 22:00 ]

  

Скачать .torrent

Размер .torrent файла 8 KB


Размер: 309 MB
Хэш (hash) релиза: 4e731b1fd1ecbe4794ce6fd5b41b56f25f21e1ea

Еще никто не оставлял запись к записи скачать торрент Фанатки на завтрак не остаются Groupies bleiben nicht zum Frühstück . Будь первым!

!Обратная связь