Скачать через торрент музыку Существо в корзине 2 & Франкеншлюха Basket Case 2 & Frankenhooker бесплатно без регистрации torrent

Если у вас наблюдаются проблемы со скриншотами, переходом по ссылками, скачиванием торрентов - проблемы в блокировщике рекламы AdBlock. #хорошегоДня!


Статистика раздачи
Размер:  270 MB   |    Зарегистрирован:  2 года 5 месяцев   |    .torrent скачан:  31 раз   |   
Раздают:  1  
   
Загрузка...
 
Автор Сообщение

Galfimbul

avatar Galfimbul


Существо в корзине 2 & Франкеншлюха / Basket Case 2 & Frankenhooker
Жанр: Score
Композитор: Joe Renzetti
Год выпуска диска: 1990
Производитель диска: Disctronics, UK
Издатель (лейбл): Silva Screen
Номер по каталогу: FILMCD 03
Аудиокодек: FLAC (*.flac)
Тип рипа: tracks+.cue
Битрейт аудио: lossless
Продолжительность: 00:56:36
Источник: собственный рип
Наличие сканов в содержимом раздачи: да, 600 dpi
Ссылки - Basket Case 2 (1990): Кинопоиск | IMDB | Wikipedia | SoundtrackCollector
Ссылки - Frankenhooker (1990): Кинопоиск | IMDB | Wikipedia | SoundtrackCollector
MP3: [url=...4977192](Score) Существо в корзине 2 и Франкеншлюха / Basket Case 2 and Frankenhooker (Joe Renzetti) - 1990, MP3 (tracks) 320 kbps[/url]
Joe Renzetti на трекере: [url=...786&nm=Joe+Renzetti]lossless[/url] | [url=...785&nm=Joe+Renzetti]lossy[/url]
01. I'm Pregnant, I'm Dead [0:03:39.60]
02. Granny At Freak Tent [0:02:56.47]
03. Barbecue [0:02:18.43]
04. Original Main Titles [0:02:25.05]
05. Out Of Hospital [0:01:41.10]
06. Out Of Window [0:01:49.62]
07. The Big Escape [0:03:39.20]
08. Room Of Memories [0:02:20.70]
09. In The Attic [0:03:26.63]
10. Granny Meeting [0:04:29.45]
11. In Love [0:01:59.22]
Tracks 1 - 11 from "Basket Case 2"

12. Main Titles [0:03:15.73]
13. Lookin' For Hookers [0:03:13.37]
14. Jeffrey And Parts [0:04:39.30]
15. The Creation [0:04:02.53]
16. The Eyeball / Happy Day [0:02:34.30]
17. Jeffrey Fixes Elizabeth [0:04:08.17]
18. Zoro Killing [0:03:54.43]
Tracks 12 - 17 from "Frankenhooker"
Exact Audio Copy V1.0 beta 3 from 29. August 2011

EAC extraction logfile from 3. April 2015, 11:51

Joe Renzetti / Basket Case 2 / Frankenhooker

Used drive : PLEXTOR CD-R PX-230A Adapter: 0 ID: 0

Read mode : SecureUtilize accurate stream : YesDefeat audio cache : YesMake use of C2 pointers : No

Read offset correction : 738Overread into Lead-In and Lead-Out : NoFill up missing offset samples with silence : YesDelete leading and trailing silent blocks : NoNull samples used in CRC calculations : YesUsed interface : Native Win32 interface for Win NT & 2000Gap handling : Appended to previous track

Used output format : User Defined EncoderSelected bitrate : 1024 kBit/sQuality : HighAdd ID3 tag : NoCommand line compressor : C:\Program Files\Exact Audio Copy\Flac\flac.exeAdditional command line options : -6 -V -T "ARTIST=%artist%" -T "TITLE=%title%" -T "ALBUM=%albumtitle%" -T "DATE=%year%"-T "TRACKNUMBER=%tracknr%" -T "GENRE=%genre%" -T "COMMENT=%comment%" -T "ALBUMARTIST=%albuminterpret%" -T "COMPOSER=%composer%"-T "DISCNUMBER=%cdnumber%" -T "TOTALDISCS=%totalcds%" -T "TOTALTRACKS=%numtracks%" %source% -o %dest%

TOC of the extracted CD

Track | Start | Length | Start sector | End sector --------------------------------------------------------- 1 | 0:00.33 | 3:39.60 | 33 | 16517 2 | 3:40.18 | 2:56.47 | 16518 | 29764 3 | 6:36.65 | 2:18.43 | 29765 | 40157 4 | 8:55.33 | 2:25.05 | 40158 | 51037 5 | 11:20.38 | 1:41.10 | 51038 | 58622 6 | 13:01.48 | 1:49.62 | 58623 | 66859 7 | 14:51.35 | 3:39.20 | 66860 | 83304 8 | 18:30.55 | 2:20.70 | 83305 | 93874 9 | 20:51.50 | 3:26.63 | 93875 | 109387 10 | 24:18.38 | 4:29.45 | 109388 | 129607 11 | 28:48.08 | 1:59.22 | 129608 | 138554 12 | 30:47.30 | 3:15.73 | 138555 | 153252 13 | 34:03.28 | 3:13.37 | 153253 | 167764 14 | 37:16.65 | 4:39.30 | 167765 | 188719 15 | 41:56.20 | 4:02.53 | 188720 | 206922 16 | 45:58.73 | 2:34.30 | 206923 | 218502 17 | 48:33.28 | 4:08.17 | 218503 | 237119 18 | 52:41.45 | 3:54.43 | 237120 | 254712

Track 1

Filename C:\Music\01 - I'm Pregnant, I'm Dead.wav

Pre-gap length 0:00:02.33

Peak level 59.5 % Extraction speed 4.2 X Track quality 100.0 % Test CRC 60E40359 Copy CRC 60E40359 Track not present in AccurateRip database Copy OK

Track 2

Filename C:\Music\02 - Granny At Freak Tent.wav

Pre-gap length 0:00:01.18

Peak level 92.4 % Extraction speed 3.8 X Track quality 99.9 % Test CRC 2CBF68A9 Copy CRC 2CBF68A9 Track not present in AccurateRip database Copy OK

Track 3

Filename C:\Music\03 - Barbecue.wav

Pre-gap length 0:00:01.47

Peak level 89.3 % Extraction speed 4.0 X Track quality 100.0 % Test CRC 588D4BAC Copy CRC 588D4BAC Track not present in AccurateRip database Copy OK

Track 4

Filename C:\Music\04 - Original Main Titles.wav

Pre-gap length 0:00:03.25

Peak level 100.0 % Extraction speed 4.3 X Track quality 99.9 % Test CRC E3766611 Copy CRC E3766611 Track not present in AccurateRip database Copy OK

Track 5

Filename C:\Music\05 - Out Of Hospital.wav

Pre-gap length 0:00:02.60

Peak level 81.5 % Extraction speed 3.8 X Track quality 100.0 % Test CRC 660994FB Copy CRC 660994FB Track not present in AccurateRip database Copy OK

Track 6

Filename C:\Music\06 - Out Of Window.wav

Pre-gap length 0:00:01.63

Peak level 85.6 % Extraction speed 4.7 X Track quality 100.0 % Test CRC 960D28B7 Copy CRC 960D28B7 Track not present in AccurateRip database Copy OK

Track 7

Filename C:\Music\07 - The Big Escape.wav

Pre-gap length 0:00:01.67

Peak level 80.3 % Extraction speed 4.7 X Track quality 100.0 % Test CRC 9C3FE305 Copy CRC 9C3FE305 Track not present in AccurateRip database Copy OK

Track 8

Filename C:\Music\08 - Room Of Memories.wav

Pre-gap length 0:00:00.57

Peak level 20.8 % Extraction speed 5.1 X Track quality 100.0 % Test CRC 6B00CF62 Copy CRC 6B00CF62 Track not present in AccurateRip database Copy OK

Track 9

Filename C:\Music\09 - In The Attic.wav

Pre-gap length 0:00:01.22

Peak level 61.9 % Extraction speed 3.5 X Track quality 99.9 % Test CRC AA87DD0C Copy CRC AA87DD0C Track not present in AccurateRip database Copy OK

Track 10

Filename C:\Music\10 - Granny Meeting.wav

Pre-gap length 0:00:01.15

Peak level 45.9 % Extraction speed 5.2 X Track quality 99.9 % Test CRC 4855388D Copy CRC 4855388D Track not present in AccurateRip database Copy OK

Track 11

Filename C:\Music\11 - In Love.wav

Pre-gap length 0:00:01.28

Peak level 68.7 % Extraction speed 5.0 X Track quality 100.0 % Test CRC 56CC67F3 Copy CRC 56CC67F3 Track not present in AccurateRip database Copy OK

Track 12

Filename C:\Music\12 - Main Titles.wav

Pre-gap length 0:00:00.70

Peak level 71.7 % Extraction speed 5.3 X Track quality 100.0 % Test CRC 5FFC0C7C Copy CRC 5FFC0C7C Track not present in AccurateRip database Copy OK

Track 13

Filename C:\Music\13 - Lookin' For Hookers.wav

Pre-gap length 0:00:02.68

Peak level 65.7 % Extraction speed 5.4 X Track quality 100.0 % Test CRC D7FAADAC Copy CRC D7FAADAC Track not present in AccurateRip database Copy OK

Track 14

Filename C:\Music\14 - Jeffrey And Parts.wav

Pre-gap length 0:00:01.42

Peak level 80.0 % Extraction speed 5.6 X Track quality 100.0 % Test CRC 77A15D51 Copy CRC 77A15D51 Track not present in AccurateRip database Copy OK

Track 15

Filename C:\Music\15 - The Creation.wav

Pre-gap length 0:00:01.20

Peak level 96.1 % Extraction speed 5.0 X Track quality 99.9 % Test CRC 2AAB58EB Copy CRC 2AAB58EB Track not present in AccurateRip database Copy OK

Track 16

Filename C:\Music\16 - The Eyeball - Happy Day.wav

Pre-gap length 0:00:01.23

Peak level 64.4 % Extraction speed 5.0 X Track quality 100.0 % Test CRC 8FFBE248 Copy CRC 8FFBE248 Track not present in AccurateRip database Copy OK

Track 17

Filename C:\Music\17 - Jeffrey Fixes Elizabeth.wav

Pre-gap length 0:00:00.70

Peak level 89.0 % Extraction speed 5.5 X Track quality 100.0 % Test CRC B9FEB4CE Copy CRC B9FEB4CE Track not present in AccurateRip database Copy OK

Track 18

Filename C:\Music\18 - Zoro Killing.wav

Pre-gap length 0:00:01.05

Peak level 52.2 % Extraction speed 5.6 X Track quality 100.0 % Test CRC 6C73F798 Copy CRC 6C73F798 Track not present in AccurateRip database Copy OK

None of the tracks are present in the AccurateRip database

No errors occurred

End of status report

==== Log checksum 50EDA226EFCA48E7BC00AB9D6E78269682333C166595A92023D7134DCFD5752D ====
REM GENRE SoundtrackREM DATE 1990REM DISCID F40D4412REM COMMENT "ExactAudioCopy v1.0b3"PERFORMER "Joe Renzetti"TITLE "Basket Case 2 / Frankenhooker"FILE "01 - I'm Pregnant, I'm Dead.wav" WAVE TRACK 01 AUDIO TITLE "I'm Pregnant, I'm Dead" PERFORMER "Joe Renzetti" PREGAP 00:00:33 INDEX 01 00:00:00 TRACK 02 AUDIO TITLE "Granny At Freak Tent" PERFORMER "Joe Renzetti" INDEX 00 03:38:42FILE "02 - Granny At Freak Tent.wav" WAVE INDEX 01 00:00:00 TRACK 03 AUDIO TITLE "Barbecue" PERFORMER "Joe Renzetti" INDEX 00 02:55:00FILE "03 - Barbecue.wav" WAVE INDEX 01 00:00:00 TRACK 04 AUDIO TITLE "Original Main Titles" PERFORMER "Joe Renzetti" INDEX 00 02:15:18FILE "04 - Original Main Titles.wav" WAVE INDEX 01 00:00:00 TRACK 05 AUDIO TITLE "Out Of Hospital" PERFORMER "Joe Renzetti" INDEX 00 02:22:20FILE "05 - Out Of Hospital.wav" WAVE INDEX 01 00:00:00 TRACK 06 AUDIO TITLE "Out Of Window" PERFORMER "Joe Renzetti" INDEX 00 01:39:22FILE "06 - Out Of Window.wav" WAVE INDEX 01 00:00:00 TRACK 07 AUDIO TITLE "The Big Escape" PERFORMER "Joe Renzetti" INDEX 00 01:47:70FILE "07 - The Big Escape.wav" WAVE INDEX 01 00:00:00 TRACK 08 AUDIO TITLE "Room Of Memories" PERFORMER "Joe Renzetti" INDEX 00 03:38:38FILE "08 - Room Of Memories.wav" WAVE INDEX 01 00:00:00 TRACK 09 AUDIO TITLE "In The Attic" PERFORMER "Joe Renzetti" INDEX 00 02:19:48FILE "09 - In The Attic.wav" WAVE INDEX 01 00:00:00 TRACK 10 AUDIO TITLE "Granny Meeting" PERFORMER "Joe Renzetti" INDEX 00 03:25:48FILE "10 - Granny Meeting.wav" WAVE INDEX 01 00:00:00 TRACK 11 AUDIO TITLE "In Love" PERFORMER "Joe Renzetti" INDEX 00 04:28:17FILE "11 - In Love.wav" WAVE INDEX 01 00:00:00 TRACK 12 AUDIO TITLE "Main Titles" PERFORMER "Joe Renzetti" INDEX 00 01:58:27FILE "12 - Main Titles.wav" WAVE INDEX 01 00:00:00 TRACK 13 AUDIO TITLE "Lookin' For Hookers" PERFORMER "Joe Renzetti" INDEX 00 03:13:05FILE "13 - Lookin' For Hookers.wav" WAVE INDEX 01 00:00:00 TRACK 14 AUDIO TITLE "Jeffrey And Parts" PERFORMER "Joe Renzetti" INDEX 00 03:11:70FILE "14 - Jeffrey And Parts.wav" WAVE INDEX 01 00:00:00 TRACK 15 AUDIO TITLE "The Creation" PERFORMER "Joe Renzetti" INDEX 00 04:38:10FILE "15 - The Creation.wav" WAVE INDEX 01 00:00:00 TRACK 16 AUDIO TITLE "The Eyeball / Happy Day" PERFORMER "Joe Renzetti" INDEX 00 04:01:30FILE "16 - The Eyeball - Happy Day.wav" WAVE INDEX 01 00:00:00 TRACK 17 AUDIO TITLE "Jeffrey Fixes Elizabeth" PERFORMER "Joe Renzetti" INDEX 00 02:33:35FILE "17 - Jeffrey Fixes Elizabeth.wav" WAVE INDEX 01 00:00:00 TRACK 18 AUDIO TITLE "Zoro Killing" PERFORMER "Joe Renzetti" INDEX 00 04:07:12FILE "18 - Zoro Killing.wav" WAVE INDEX 01 00:00:00


Трекер:  [ 03-Апр-2015 21:00 ]

  

Скачать .torrent

Размер .torrent файла 23 KB


Размер: 270 MB
Хэш (hash) релиза: 3740350aec360d389b7aa4f3c9341d0ae7138833

Еще никто не оставлял запись к записи скачать торрент Существо в корзине 2 & Франкеншлюха Basket Case 2 & Frankenhooker . Будь первым!

!Обратная связь