Скачать через торрент Знаменитый детектив Конан: Дело об исчезновении Эдогавы Конана Edogawa Conan Shissou Jiken: Shijou Saiaku no Futsukakan бесплатно Аниме Все серии на русском torrent

Если у вас наблюдаются проблемы со скриншотами, переходом по ссылками, скачиванием торрентов - проблемы в блокировщике рекламы AdBlock. #хорошегоДня!


Статистика раздачи
Размер:  1.03 GB   |    Зарегистрирован:  2 года 5 месяцев   |    .torrent скачан:  34 раза   |   
Раздают:  1  
   
Загрузка...
 
Автор Сообщение

Galfimbul

avatar Galfimbul


Знаменитый детектив Конан: Дело об исчезновении Эдогавы Конана
(Самые ужасные два дня в истории)

Страна: Япония
Жанр: Приключения, детектив
Продолжительность: ТВ-спэшл, 92 мин.
Премьера: 26.12.2014
Озвучивание: Отсутствует
По переводу: ShinkaDan
- Перевод с японского: AnjiJa
- Редакция, тайминг, оформление: Natan
- Редакторские правки: Tami, Pain Hollow, Сушка+
Режиссер: Ямамото Ясуйтиро
Автор оригинала: Аояма Госё

Студия:
Описание: Японская полиция успешно перехватывает контрабанду взрывчатки, однако часть нелегального груза пропадает. В то же время выясняется причастность к этому преступлению некого "легендарного убийцы", неуловимого преступника, чье имя покрыто тайной и обросло множеством слухов и легенд. Может быть, он причастен к исчезновению Эдогавы Конан-куна?
Качество: HDTVRip (720p)
Тип релиза: Без хардсаба
Формат видео: mp4
Автор рипа: [Ohys-Raws]
Видео: x264 (8 бит) 1280x720, 23,976 кадра/сек, ~ 1 606 Kbps Кбит/сек
Аудио:
1: AAC, 2 канала (стерео), 48000Hz, ~192 Кбит/сек; JAP
Дополнительная информация:
Это авторская раздача, озвучка будет позже.
General
Complete name : L:\Detective Conan RAW\ Edogawa Conan Shissou Jiken - Shijou Saiaku no Futsukakan TV-SP\[Ohys-Raws] Edogawa Conan Shissou Jiken - Shijou Saiaku no Futsukakan (NTV 1280x720 x264 AAC).mp4
Format : MPEG-4
Format profile : Base Media
Codec ID : isom
File size : 1.03 GiB
Duration : 1h 31mn
Overall bit rate mode : Variable
Overall bit rate : 1 606 Kbps
Encoded date : UTC 2014-12-26 16:10:22
Tagged date : UTC 2014-12-26 16:10:22

Video
ID : 1
Format : AVC
Format/Info : Advanced Video Codec
Format profile : Main@L4.1
Format settings, CABAC : Yes
Format settings, ReFrames : 4 frames
Codec ID : avc1
Codec ID/Info : Advanced Video Coding
Duration : 1h 31mn
Bit rate : 1 410 Kbps
Maximum bit rate : 16.5 Mbps
Width : 1 280 pixels
Height : 720 pixels
Display aspect ratio : 16:9
Frame rate mode : Constant
Frame rate : 23.976 fps
Color space : YUV
Chroma subsampling : 4:2:0
Bit depth : 8 bits
Scan type : Progressive
Bits/(Pixel*Frame) : 0.064
Stream size : 924 MiB (88%)
Writing library : x264 core 144 r2525kMod 40bb568
Encoding settings : cabac=1 / ref=3 / deblock=1:0:0 / analyse=0x1:0x111 / me=hex / subme=7 / psy=1 / fade_compensate=0.00 / psy_rd=1.00:0.00 / mixed_ref=1 / me_range=16 / chroma_me=1 / trellis=1 / 8x8dct=0 / cqm=0 / deadzone=21,11 / fast_pskip=0 / chroma_qp_offset=-2 / threads=12 / lookahead_threads=2 / sliced_threads=0 / nr=0 / decimate=0 / interlaced=0 / bluray_compat=0 / constrained_intra=0 / fgo=0 / bframes=3 / b_pyramid=2 / b_adapt=1 / b_bias=0 / direct=1 / weightb=1 / open_gop=0 / weightp=2 / keyint=240 / keyint_min=1 / scenecut=40 / intra_refresh=0 / rc_lookahead=40 / rc=crf / mbtree=1 / crf=20.0000 / qcomp=0.60 / qpmin=10 / qpmax=26 / qpstep=8 / ip_ratio=1.40 / aq=1:1.00
Encoded date : UTC 2014-12-26 16:10:17
Tagged date : UTC 2014-12-26 16:10:26
Color primaries : BT.709
Transfer characteristics : BT.709
Matrix coefficients : BT.709
Color range : Limited

Audio
ID : 2
Format : AAC
Format/Info : Advanced Audio Codec
Format profile : LC
Codec ID : 40
Duration : 1h 31mn
Bit rate mode : Variable
Bit rate : 192 Kbps
Maximum bit rate : 246 Kbps
Channel(s) : 2 channels
Channel positions : Front: L R
Sampling rate : 48.0 KHz
Compression mode : Lossy
Stream size : 126 MiB (12%)
Language : Japanese
Encoded date : UTC 2014-12-26 15:23:44
Tagged date : UTC 2014-12-26 16:10:26


Трекер:  [ 31-Мар-2015 23:00 ]

  

Скачать .torrent

Размер .torrent файла 11 KB


Размер: 1.03 GB
Хэш (hash) релиза: 669841b88e090525413736f47cc8d2925b8a2bba
Подписка на обновления:

Торренты, похожие на Знаменитый детектив Конан: Дело об исчезновении Эдогавы Конана Edogawa Conan Shissou Jiken: Shijou Saiaku no Futsukakan скачать торрент

Форум Название Автор Размер S L Добавлен
Аниме | HD Rips ·· Знаменитый детектив Конан: Дело об исчезновении Эдогавы Конана / Edogawa Conan Shissou Jiken: Shijou Saiaku no Futsukakan [Special] [1 из 1] [Без хардсаба] [JAP, SUB] [2014, приключения, детектив, HDTVRip] [720p] Galfimbul 11045942281.03 GB 0 0 1488377022

17:03

1-Мар-17

Еще никто не оставлял запись к записи скачать торрент Знаменитый детектив Конан: Дело об исчезновении Эдогавы Конана Edogawa Conan Shissou Jiken: Shijou Saiaku no Futsukakan . Будь первым!

!Обратная связь